Filmbol Forum Film İndir 1080P v Galaksinin Koruyucuları (Guardians of the Galaxy) Türkçe Dublaj BLURAY 1080P indir
Mega linklerinin şikayet edilmemesi için global erişime kapatıp sadece yorum yapanlara açıyoruz. Bu linkleri gizleme işlemini mecburen yapıyoruz ve yorum yapmanızın siteye değil size faydası vardır. Teşekürler yazmayı çok görüp, Random/Spam mesajlar atarak Mega linklerini açmaya çalışan kullanıcılara önce süresiz ban, devam ederse IP ban atacağız.
Filmbol'da moderatör olmak ister misiniz? Bizimle iletişime geçmek için tıklayın!
Galaksinin Koruyucuları (Guardians of the Galaxy) Türkçe Dublaj BLURAY 1080P indir
BroserBros
Galaksinin Koruyucuları (Guardians of the Galaxy) Türkçe Dublaj BLURAY 1080P indir
4
392
  • Derecelendirme: 0/5 - 0 oy
  • 1
  • 2
  • 3
  • 4
  • 5
Konuyu Okuyanlar:1 Ziyaretçi
Şuan Online!
Filmin Yayınlanma Tarihi: 2014 
WWW
Şuan Online!
BroserBros Kurucu Admin
*******
Admin








 Galaksinin Koruyucuları



Galaksinin Koruyucuları, evrenin kontrolünü ele geçirmeye çalışanları durdurmaya çalışan bir grup suçlunun hikayesini konu ediyor. Kendisine Star-Lord lakabını takan maceracı Peter Quill, esrarengiz bir küreyi çalınca güçlü, hırslı ve ihtiraslı bir kötü adam olan Ronan'la başı derde girer. Ronan'ın tek amacı küreyi ele geçirmektir ve bu hayali tüm evreni tehdit altına alabilir. Quill, ondan kurtulmak isterken bir anda kendisini birbiriyle hiçbir ilgisi olmayan uyumsuz bir ekibin içerisinde bulur; tehlikeyi yok etmek isteyen Star-Lord, silahlı bir rakun olan Roket, Rakun’un yoldaşı olan ağaç kılıklı Groot, ölümcül yeşil kadın Gamora ve gözünü intikam hırsı bürümüş Yokedici Drax ile işbirliği içerisine girer. Galaksinin Koruyucuları olarak anılan bu beşli, evren için gerçekten tehlike arz eden bu kürenin gücüne ve peşindeki düşmanlarına karşı ne yapacaktır? Marvel'ın "Guardians Of The Galaxy" adlı çizgi romanından uyarlanan filmin yönetmenliğini Slither ve Super filmlerinin yönetmeni James Gunn üstlenirken başrol ve seslendirme kadrosunda Chris Pratt, Vin Diesel, Bradley Cooper ve Zoe Saldana gibi isimler bulunuyor.

Galaksinin Koruyucuları (2014) (Guardians of the Galaxy) Filmi Imdb'den 1,000,000 kişi tarafından oylandı ve 8,0 puan aldı. Bu film için editör puanı 9,2 olarak belirlendi. İyi Seyirler!

Teknik Detaylar

Kod :
General
Unique ID                                : 179801670024436616553320171837263285511 (0x87448AC2CFC6D5BF1CCC10C4AF2D8D07)
Complete name                            : /root/Desktop/5/Galaksinin.Koruyucuları.2014.1080p.BluRay.x264.TR.Filmbol.mkv
Format                                   : Matroska
Format version                           : Version 4 / Version 2
File size                                : 2.10 GiB
Duration                                 : 2h 0mn
Overall bit rate                         : 2 482 Kbps
Movie name                               : Galaksinin Koruyucuları (2014) - Filmbol.org
Encoded date                             : UTC 2020-02-12 13:46:23
Writing application                      : mkvmerge v35.0.0 ('All The Love In The World') 64-bit
Writing library                          : libebml v1.3.9 + libmatroska v1.5.2

Video
ID                                       : 1
Format                                   : AVC
Format/Info                              : Advanced Video Codec
Format profile                           : [email protected]
Format settings, CABAC                   : Yes
Format settings, ReFrames                : 4 frames
Codec ID                                 : V_MPEG4/ISO/AVC
Duration                                 : 2h 0mn
Bit rate                                 : 2 097 Kbps
Width                                    : 1 920 pixels
Height                                   : 800 pixels
Display aspect ratio                     : 2.40:1
Frame rate mode                          : Constant
Frame rate                               : 23.976 (24000/1001) fps
Original frame rate                      : 23.976 (23976/1000) fps
Color space                              : YUV
Chroma subsampling                       : 4:2:0
Bit depth                                : 8 bits
Scan type                                : Progressive
Bits/(Pixel*Frame)                       : 0.057
Stream size                              : 1.77 GiB (84%)
Title                                    : 1080P - Filmbol.org
Writing library                          : x264 core 142 r2479 dd79a61
Encoding settings                        : cabac=1 / ref=4 / deblock=1:-1:-1 / analyse=0x3:0x133 / me=umh / subme=9 / psy=1 / psy_rd=1.00:0.15 / mixed_ref=1 / me_range=24 / chroma_me=1 / trellis=2 / 8x8dct=1 / cqm=0 / deadzone=21,11 / fast_pskip=0 / chroma_qp_offset=-3 / threads=48 / lookahead_threads=4 / sliced_threads=0 / nr=0 / decimate=1 / interlaced=0 / bluray_compat=0 / constrained_intra=0 / bframes=3 / b_pyramid=2 / b_adapt=2 / b_bias=0 / direct=3 / weightb=1 / open_gop=0 / weightp=2 / keyint=250 / keyint_min=23 / scenecut=40 / intra_refresh=0 / rc_lookahead=60 / rc=2pass / mbtree=1 / bitrate=2097 / ratetol=1.0 / qcomp=0.60 / qpmin=0 / qpmax=69 / qpstep=4 / cplxblur=20.0 / qblur=0.5 / vbv_maxrate=31250 / vbv_bufsize=31250 / nal_hrd=none / filler=0 / ip_ratio=1.40 / aq=1:1.00
Default                                  : Yes
Forced                                   : No
Color range                              : Limited
Color primaries                          : BT.709
Matrix coefficients                      : BT.709

Audio
ID                                       : 2
Format                                   : AC-3
Format/Info                              : Audio Coding 3
Mode extension                           : CM (complete main)
Format settings, Endianness              : Big
Codec ID                                 : A_AC3
Duration                                 : 2h 0mn
Bit rate mode                            : Constant
Bit rate                                 : 384 Kbps
Channel(s)                               : 6 channels
Channel positions                        : Front: L C R, Side: L R, LFE
Sampling rate                            : 48.0 KHz
Frame rate                               : 31.250 fps (1536 spf)
Compression mode                         : Lossy
Stream size                              : 332 MiB (15%)
Title                                    : Türkçe - Filmbol.org
Default                                  : Yes
Forced                                   : No

Film Detayları


 Galaksinin Koruyucuları

 Galaksinin Koruyucuları

 Galaksinin Koruyucuları


Film Fragmanı


Film Detayları

Mini 1080P İndir

Uptobox ile indir

1Fichier ile indir

1Fichier'den İndiremiyor musun? Tıklayın!


Mega linki şuan da gizli. Kullanıma açmak için konuya yorum yapın ve ardından sayfayı yenileyin.

Mega


MediaFire ile indir

Şuan Offine!
Şuan Offine!
edizshady Uzman Üye
**
Uzman Üye

  • Konular0
  • Mesajlar11
  • Rep puanı 0
suppaa
Şuan Offine!
Şuan Offine!
arizona17 Uzman Üye
**
Uzman Üye

  • Konular0
  • Mesajlar19
  • Rep puanı 0
harika
Şuan Offine!
Şuan Offine!
memoli2001 Uzman Üye
**
Uzman Üye

  • Konular0
  • Mesajlar12
  • Rep puanı 0
asfdd
Şuan Offine!
Şuan Offine!
osmnn Yeni Üye
*
Üye

  • Konular0
  • Mesajlar5
  • Rep puanı 0
Sagol


Konu ile Alakalı Benzer Konular
Konular Yazar Yorumlar Okunma Son Yorum
Filmin Yayınlanma Tarihi: 2019
Ölüm Takımı (The Kill Team) - 2019 - TR+ORG - 1080P | tt6196936 TheSteeL 2 60 5 saat önce
Son Yorum: TheSteeL
Filmin Yayınlanma Tarihi: 2007
Harry Potter ve Zümrüdüanka Yoldaşlığı (2007) Türkçe Dublaj BLURAY m1080P İndir BroserBros 18 1,441 7 saat önce
Son Yorum: bjk1001
Filmin Yayınlanma Tarihi: 2005
Harry Potter ve Ateş Kadehi (Goblet of Fire) Türkçe Dublaj BLURAY 1080P İndir BroserBros 30 2,890 8 saat önce
Son Yorum: bjk1001
Filmin Yayınlanma Tarihi: 2016
The Nice Guys: İyi Adamlar (2016) Türkçe Dublaj 1080P İndir BroserBros 4 1,317 , Saat: 01:44
Son Yorum: ANDREMEDAN
Filmin Yayınlanma Tarihi: 2014
Madagaskar Penguenleri (Penguins of Madagascar) Türkçe Dublaj BLURAY 1080P İndir BroserBros 3 712 , Saat: 22:51
Son Yorum: Omertrans505

Hızlı Menü: