Hoşgeldin, Ziyaretçi: Giriş Yap Üye Ol


stats
Adblock'u kapattıysanız tıklayın.
Hoşgeldiniz!
Filmbol'u tercih ettiğiniz için teşekkürler, ancak ablock kullanarak devam edemezsiniz.
Merak etmeyin. Heryerden ardı ardına çıkan reklamlar görmeyeceksiniz :)

Sadece site içi 1 reklam göreceksin ve bu site gezintini etkilemeyecek.
Konuyu Oyla:
  • Derecelendirme: 0/5 - 0 oy
  • 1
  • 2
  • 3
  • 4
  • 5
Fındık Kıran ve Dört Diyar (The Nutcracker...) Türkçe Dublaj BLURAY m1080P İndir
#1
Filmin Yayınlanma Tarihi: 2018 

indirme türü


Bulut + Premium

vizyon tarihi


02 Kasım 2018

Boyutlar


1,76

diller


[TR]

altyazilar


Yok [Eklenebilir]

Video Format: Mkv


Matroska (.MKV)

Video Detay


MPEG-4, 2150 Kbps, 1,49 GB

imdb puanı


5,5 / 10,0 / 25,000

süre


96 dakika

Ses Kodek: AC3


Audio Coding 3 (AC3)

Ses Detay


384 Kbps, 6 Kanal, 273Mb

Editör Puanı


5,6

Genislik Yukseklik


1920-1040

sürüm


x264 | m1080P





Fındık Kıran ve Dort Diyar


Film Detayları

Genç Clara'nın istediği tek şey bir anahtardır. Bu eşi benzeri olmayan anahtar, vaftiz babası Drosselmeyer'ın ona geleneksel parti sırasında verdiği ve hayata zamansızca veda etmiş olan annesinin paha biçilemez altın tarağını bulunduran kutunun anahtarıdır. Ancak bu anahtar garip ve esrarengiz bir paralel dünyada kaybolmuştur. Clara bu paralel dünyada bir fare çetesiyle, Çiçekler Ülkesi, Tatlılar Ülkesi, Kar Taneleri Ülkesi olmak üzere 3 boyuta hükmeden hükümdarlarla ve yolculuğunda ona eşlik edecek olan Phillip isimli bir askerle tanışır. Clara ve Phillip, despot Zencefil Anne'nin yönetimindeki 4. boyutta da anahtarı aramak ve dengesi bozulmuş olan paralel evrene denge getirebilmek için cesur olmalıdır.
 
Fındık Kıran ve Dört Diyar (The Nutcracker and the Four Realms) Filmi Imdb'den 25,000 kişi tarafından oylandı ve 5,5 puan aldı. Bu film için editör puanı 5,6 olarak belirlendi. İyi Seyirler!


Teknik Detaylar


Kod:
General
Complete name                            : Fındıkkıran.ve.Dört.Diyar.2018.m720p.BLURAY.X264.TR.mkv
Format                                   : Matroska
Format version                           : Version 4 / Version 2
File size                                : 1 019 MiB
Duration                                 : 1h 39mn
Overall bit rate                         : 1 436 Kbps
Movie name                               : Fındık Kıran ve Dört Diyar (2018) - Filmbol.org
Encoded date                             : UTC 2019-07-31 14:56:28
Writing application                      : mkvmerge v35.0.0 ('All The Love In The World') 64-bit
Writing library                          : libebml v1.3.9 + libmatroska v1.5.2

Video
ID                                       : 1
Format                                   : AVC
Format/Info                              : Advanced Video Codec
Format profile                           : High@L4.1
Format settings, CABAC                   : Yes
Format settings, ReFrames                : 4 frames
Codec ID                                 : V_MPEG4/ISO/AVC
Duration                                 : 1h 39mn
Bit rate                                 : 1 050 Kbps
Width                                    : 1 280 pixels
Height                                   : 694 pixels
Display aspect ratio                     : 1.85:1
Frame rate mode                          : Constant
Frame rate                               : 23.976 (24000/1001) fps
Color space                              : YUV
Chroma subsampling                       : 4:2:0
Bit depth                                : 8 bits
Scan type                                : Progressive
Bits/(Pixel*Frame)                       : 0.049
Stream size                              : 745 MiB (73%)
Title                                    : m720P - Filmbol.org
Writing library                          : x264 core 157
Default                                  : Yes
Forced                                   : No

Audio
ID                                       : 2
Format                                   : AC-3
Format/Info                              : Audio Coding 3
Mode extension                           : CM (complete main)
Format settings, Endianness              : Big
Codec ID                                 : A_AC3
Duration                                 : 1h 39mn
Bit rate mode                            : Constant
Bit rate                                 : 384 Kbps
Channel(s)                               : 6 channels
Channel positions                        : Front: L C R, Side: L R, LFE
Sampling rate                            : 48.0 KHz
Frame rate                               : 31.250 fps (1536 spf)
Compression mode                         : Lossy
Stream size                              : 273 MiB (27%)
Title                                    : Türkçe - Filmbol.org
Language                                 : Turkish
Default                                  : Yes
Forced                                   : No



Film Detayları


Fındık Kıran ve Dort Diyar

Fındık Kıran ve Dort Diyar

Fındık Kıran ve Dort Diyar


Film Fragmanı


Film Detayları

Mini 1080P İndir


Uptobox ile indir

Tusfiles ile indir

Filerio ile indir

LetsUpload ile indir

MegaUp ile indir

Filmbol'da aşağıdaki linkler sadece üyelere sunulur. Ayrıca bu linklerde link kısaltma servisleri kullanılmaz, linke tek tık ile reklamsız erişirsiniz. Konu'ya yorum yapın ve sayfayı yenileyin. Reklamsız linkler (en az 3 en fazla 5 link) açılmış olacaktır. Not: Filmbol'a üye olmak tamamen ücretsizdir, en az 3 link kuralı 01.07.2019 tarihinden sonraki paylaşımlar için geçerlidir. Ancak çoğu film için en az bir premium link her zaman bulunur.

Mega

Dosyaco

Dosyaupload

Mediafire

Google Drive
 
Cevapla
#2
süper
 
Cevapla
#3
Çok güzel

Bencede
 
Cevapla
#4
ARADIGIM SİTEYİ BULDUM
 
Cevapla
#5
Filmin Yayınlanma Tarihi: 2020 
Smile ooooooo
 
Cevapla
  


Konu ile Alakalı Benzer Konular
Konular Yazar Yorumlar Okunma Son Yorum
Filmin Yayınlanma Tarihi: 2019 Dumbo (7A) Türkçe Dublaj BLURAY m1080P İndir BroserBros 3 104 14-08-2019, Saat: 23:47
Son Yorum: ORHun
Filmin Yayınlanma Tarihi: 2018 Grinç (The Grinch) Türkçe Dublaj BLURAY m1080P İndir BroserBros 0 38 28-07-2019, Saat: 20:49
Son Yorum: BroserBros

Hızlı Menü:


Şu anda bu konuyu okuyanlar: 3 Ziyaretçi