Filmbol Forum Film İndir FHD - FULL HD v Feride (Feride) - 2020 - TR+ORG - FHD - x264
Filmbol'da moderatör olmak ister misiniz? Bizimle iletişime geçmek için tıklayın!
Feride (Feride) - 2020 - TR+ORG - FHD - x264
BroserBros
Feride (Feride) - 2020 - TR+ORG - FHD - x264
0
76
  • Derecelendirme: 0/5 - 0 oy
  • 1
  • 2
  • 3
  • 4
  • 5
Konuyu Okuyanlar:1 Ziyaretçi
Şuan Online!
Filmin Yayınlanma Tarihi: 2020 
Şuan Online!
BroserBros Kurucu Admin
*******
Admin

Vizyon Tarihi


24 Haziran 2020

imdb puanı


2,0 / 200

süre


103 dakika

Editör Puanı


4,0 / 10

Video Format: Mkv


Matroska (.MKV)

Ses Kodek: AC3


Audio Coding 3 (AC3)

sürüm


x264 | WEB-DL

Boyutlar


3,41 GB



 Feride



Feride pekte mükemmel olmayan bir terzi de kendi çapında iyi bir işçidir. Feride patronu ile bir iddiaya girer ve bu iddia Feridenin boyunu aşacak düzeyde olup, çakma süper kahraman elbiseleri dikmektir...

Feride (2020) (Feride) Filmi Imdb'den 200 kişi tarafından oylandı ve 2,0 puan aldı. Bu film için editör puanı 4,0 olarak belirlendi. İyi Seyirler!

Teknik Detaylar

Kod :
General
Unique ID                                : 281123963897459415138118307361768672439 (0xD37E818A3B43B763A0D5928CA4D10CB7)
Complete name                            : /root/Desktop/5/Feride.2020.FHD.WEB-DL.x264.Yerli.Filmbol.mkv
Format                                  : Matroska
Format version                          : Version 4 / Version 2
File size                                : 3.41 GiB
Duration                                : 1h 35mn
Overall bit rate                        : 5 097 Kbps
Encoded date                            : UTC 2020-08-17 03:47:36
Writing application                      : mkvmerge v34.0.0 ('Sight and Seen') 64-bit
Writing library                          : libebml v1.3.7 + libmatroska v1.5.0

Video
ID                                      : 1
Format                                  : AVC
Format/Info                              : Advanced Video Codec
Format profile                          : High@L4
Format settings, CABAC                  : Yes
Format settings, ReFrames                : 5 frames
Codec ID                                : V_MPEG4/ISO/AVC
Duration                                : 1h 35mn
Bit rate                                : 4 711 Kbps
Width                                    : 1 916 pixels
Height                                  : 796 pixels
Display aspect ratio                    : 2.40:1
Frame rate mode                          : Constant
Frame rate                              : 25.000 fps
Color space                              : YUV
Chroma subsampling                      : 4:2:0
Bit depth                                : 8 bits
Scan type                                : Progressive
Bits/(Pixel*Frame)                      : 0.124
Stream size                              : 3.15 GiB (92%)
Language                                : English
Default                                  : Yes
Forced                                  : No
Color range                              : Limited
Color primaries                          : BT.709
Transfer characteristics                : BT.709
Matrix coefficients                      : BT.709

Audio
ID                                      : 2
Format                                  : AC-3
Format/Info                              : Audio Coding 3
Mode extension                          : CM (complete main)
Format settings, Endianness              : Big
Codec ID                                : A_AC3
Duration                                : 1h 35mn
Bit rate mode                            : Constant
Bit rate                                : 384 Kbps
Channel(s)                              : 6 channels
Channel positions                        : Front: L C R, Side: L R, LFE
Sampling rate                            : 48.0 KHz
Frame rate                              : 31.250 fps (1536 spf)
Compression mode                        : Lossy
Delay relative to video                  : -40ms
Stream size                              : 263 MiB (8%)
Language                                : Turkish
Default                                  : Yes
Forced                                  : No

Menu
00:00:00.000                            : en:1
00:28:09.000                            : en:2
00:48:49.640                            : en:3
01:13:01.960                            : en:4
01:33:17.560                            : en:5

Film Detayları


 Feride

 Feride

 Feride


Film Fragmanı


Film Detayları

Uptobox ile indir

1Fichier ile indir

1Fichier'den İndiremiyor musun? Tıklayın!


Mega ile indir

Bunun için üzgünüz ancak, bu linke sadece premium üyeler erişebilir.

Filmbol Cloud



Konu ile Alakalı Benzer Konular
Konular Yazar Yorumlar Okunma Son Yorum
Filmin Yayınlanma Tarihi: 2019
Luce (Luce) - 2019 - TR+ORG - FHD - x264 BroserBros 0 14 9 saat önce
Son Yorum: BroserBros
Filmin Yayınlanma Tarihi: 2020
Aşka İnan (I Still Believe) - 2020 - TR+ORG - FHD - x264 BroserBros 0 13 10 saat önce
Son Yorum: BroserBros
Filmin Yayınlanma Tarihi: 2018
Döndüm Ben (Yerli) - 2018 - TR+ORG - FHD - x264 BroserBros 0 35 27-11-2020, Saat: 18:41
Son Yorum: BroserBros
Filmin Yayınlanma Tarihi: 2018
Bana Bir Soygun Yaz 2 (Yerli) - 2018 - TR+ORG - FHD - x264 BroserBros 0 35 27-11-2020, Saat: 18:26
Son Yorum: BroserBros
Filmin Yayınlanma Tarihi: 2019
Hain (The Traitor / Il traditore) - 2019 - TR+ORG - FHD - x264 BroserBros 0 57 26-11-2020, Saat: 16:05
Son Yorum: BroserBros

Hızlı Menü: