Filmbol Forum Film İndir 1080P v Feride (Feride) - 2020 - TR+ORG - 1080P
Filmbol'da moderatör olmak ister misiniz? Bizimle iletişime geçmek için tıklayın!
Feride (Feride) - 2020 - TR+ORG - 1080P
BroserBros
Feride (Feride) - 2020 - TR+ORG - 1080P
0
50
  • Derecelendirme: 0/5 - 0 oy
  • 1
  • 2
  • 3
  • 4
  • 5
Konuyu Okuyanlar:2 Ziyaretçi
Şuan Online!
Filmin Yayınlanma Tarihi: 2020 
Şuan Online!
BroserBros Kurucu Admin
*******
Admin

Vizyon Tarihi


24 Haziran 2020

imdb puanı


2,0 / 200

süre


103 dakika

Editör Puanı


4,0 / 10

Video Format: Mkv


Matroska (.MKV)

Ses Kodek: AC3


Audio Coding 3 (AC3)

sürüm


x264 | 1080P | WEB-DL

Boyutlar


1,69 GB



 Feride



Feride pekte mükemmel olmayan bir terzi de kendi çapında iyi bir işçidir. Feride patronu ile bir iddiaya girer ve bu iddia Feridenin boyunu aşacak düzeyde olup, çakma süper kahraman elbiseleri dikmektir...

Feride (2020) (Feride) Filmi Imdb'den 200 kişi tarafından oylandı ve 2,0 puan aldı. Bu film için editör puanı 4,0 olarak belirlendi. İyi Seyirler!

Teknik Detaylar

Kod :
General
Unique ID                                : 187692371571798591031688080094535165445 (0x8D343C624262D6188767BF899A452605)
Complete name                            : /root/Desktop/5/Feride.2020.1080p.WEB-DL.x264.Yerli.Filmbol.mkv
Format                                  : Matroska
Format version                          : Version 4 / Version 2
File size                                : 1.69 GiB
Duration                                : 1h 35mn
Overall bit rate                        : 2 530 Kbps
Encoded date                            : UTC 2020-08-17 03:48:38
Writing application                      : mkvmerge v34.0.0 ('Sight and Seen') 64-bit
Writing library                          : libebml v1.3.7 + libmatroska v1.5.0

Video
ID                                      : 1
Format                                  : AVC
Format/Info                              : Advanced Video Codec
Format profile                          : Main@L4
Format settings, CABAC                  : Yes
Format settings, ReFrames                : 2 frames
Format settings, GOP                    : M=1, N=25
Codec ID                                : V_MPEG4/ISO/AVC
Duration                                : 1h 35mn
Bit rate                                : 2 144 Kbps
Width                                    : 1 916 pixels
Height                                  : 796 pixels
Display aspect ratio                    : 2.40:1
Frame rate mode                          : Constant
Frame rate                              : 25.000 fps
Color space                              : YUV
Chroma subsampling                      : 4:2:0
Bit depth                                : 8 bits
Scan type                                : Progressive
Bits/(Pixel*Frame)                      : 0.056
Stream size                              : 1.43 GiB (85%)
Language                                : English
Default                                  : Yes
Forced                                  : No

Audio
ID                                      : 2
Format                                  : AC-3
Format/Info                              : Audio Coding 3
Mode extension                          : CM (complete main)
Format settings, Endianness              : Big
Codec ID                                : A_AC3
Duration                                : 1h 35mn
Bit rate mode                            : Constant
Bit rate                                : 384 Kbps
Channel(s)                              : 6 channels
Channel positions                        : Front: L C R, Side: L R, LFE
Sampling rate                            : 48.0 KHz
Frame rate                              : 31.250 fps (1536 spf)
Compression mode                        : Lossy
Stream size                              : 263 MiB (15%)
Language                                : Turkish
Default                                  : Yes
Forced                                  : No

Menu
00:00:00.000                            : en:1
00:28:09.000                            : en:2
00:48:49.640                            : en:3
01:13:01.960                            : en:4
01:33:17.560                            : en:5

Film Detayları


 Feride

 Feride

 Feride


Film Fragmanı


Film Detayları

Uptobox ile indir

1Fichier ile indir

1Fichier'den İndiremiyor musun? Tıklayın!


Mega ile indir

Bunun için üzgünüz ancak, bu linke sadece premium üyeler erişebilir.

Filmbol Cloud



Konu ile Alakalı Benzer Konular
Konular Yazar Yorumlar Okunma Son Yorum
Filmin Yayınlanma Tarihi: 2020
Deathstroke Şövalyeler ve Ejderhalar (Deathstroke Knights & Dragons: The Movie) - 2020 - TR+ORG - 1080P BroserBros 0 19 , Saat: 18:31
Son Yorum: BroserBros
Filmin Yayınlanma Tarihi: 2019
15 Dakika Savaş (L'intervention) - 2019 - TR+ORG - 1080P BroserBros 0 20 , Saat: 17:42
Son Yorum: BroserBros
Filmin Yayınlanma Tarihi: 2020
Sürprizli Gece (The Sleepover) - 2020 - TR+ORG - 1080P BroserBros 0 21 , Saat: 16:19
Son Yorum: BroserBros
Filmin Yayınlanma Tarihi: 2019
Gel Babacığına (Come to Daddy) - 2019 - TR+ORG - 1080P BroserBros 0 34 22-11-2020, Saat: 17:43
Son Yorum: BroserBros
Filmin Yayınlanma Tarihi: 2019
San Francisco'daki Son Siyah Adam (The Last Black Man in San Francisco) - 2019 - TR+ORG - 1080P BroserBros 0 36 22-11-2020, Saat: 17:30
Son Yorum: BroserBros

Hızlı Menü: