Filmbol Forum Film İndir BRRip XviD v Feride (Feride) - 2020 - TR - BRRip XviD
Filmbol'da moderatör olmak ister misiniz? Bizimle iletişime geçmek için tıklayın!
Feride (Feride) - 2020 - TR - BRRip XviD
BroserBros
Feride (Feride) - 2020 - TR - BRRip XviD
0
47
  • Derecelendirme: 0/5 - 0 oy
  • 1
  • 2
  • 3
  • 4
  • 5
Konuyu Okuyanlar:2 Ziyaretçi
Şuan Online!
Filmin Yayınlanma Tarihi: 2020 
Şuan Online!
BroserBros Kurucu Admin
*******
Admin

Vizyon Tarihi


24 Haziran 2020

imdb puanı


2,0 / 200

süre


103 dakika

Editör Puanı


4,0 / 10

Video Format: Avi


Audio Video Interleave (.AVI)

Ses Kodek: MP3


MPEG-1 Audio Layer III (MP3)

sürüm


h263 | HDRip XviD

Boyutlar


1,12 GB



 Feride



Feride pekte mükemmel olmayan bir terzi de kendi çapında iyi bir işçidir. Feride patronu ile bir iddiaya girer ve bu iddia Feridenin boyunu aşacak düzeyde olup, çakma süper kahraman elbiseleri dikmektir...

Feride (2020) (Feride) Filmi Imdb'den 200 kişi tarafından oylandı ve 2,0 puan aldı. Bu film için editör puanı 4,0 olarak belirlendi. İyi Seyirler!

Teknik Detaylar

Kod :
General
Complete name                            : /root/Desktop/5/Feride.2020.HDRip.XViD.Yerli.Filmbol.avi
Format                                  : AVI
Format/Info                              : Audio Video Interleave
File size                                : 1.12 GiB
Duration                                : 1h 35mn
Overall bit rate                        : 1 676 Kbps
Writing application                      : VirtualDubMod 1.5.10.3 | www.virtualdub-fr.org || (build 2550/release)
Writing library                          : VirtualDubMod build 2550/release

Video
ID                                      : 0
Format                                  : MPEG-4 Visual
Format profile                          : Advanced Simple@L5
Format settings, BVOP                    : 1
Format settings, QPel                    : No
Format settings, GMC                    : No warppoints
Format settings, Matrix                  : Default (MPEG)
Muxing mode                              : Packed bitstream
Codec ID                                : XVID
Codec ID/Hint                            : XviD
Duration                                : 1h 35mn
Bit rate                                : 1 539 Kbps
Width                                    : 720 pixels
Height                                  : 300 pixels
Display aspect ratio                    : 2.40:1
Frame rate                              : 25.000 fps
Color space                              : YUV
Chroma subsampling                      : 4:2:0
Bit depth                                : 8 bits
Scan type                                : Progressive
Compression mode                        : Lossy
Bits/(Pixel*Frame)                      : 0.285
Stream size                              : 1.03 GiB (92%)
Writing library                          : XviD 64

Audio
ID                                      : 1
Format                                  : MPEG Audio
Format version                          : Version 1
Format profile                          : Layer 3
Mode                                    : Joint stereo
Mode extension                          : MS Stereo
Codec ID                                : 55
Codec ID/Hint                            : MP3
Duration                                : 1h 35mn
Bit rate mode                            : Constant
Bit rate                                : 128 Kbps
Channel(s)                              : 2 channels
Sampling rate                            : 48.0 KHz
Compression mode                        : Lossy
Stream size                              : 87.7 MiB (8%)
Alignment                                : Split accross interleaves
Interleave, duration                    : 40 ms (1.00 video frame)
Interleave, preload duration            : 500 ms
Writing library                          : LAME3.99.5

Film Detayları


 Feride

 Feride

 Feride


Film Fragmanı


Film Detayları


Uptobox ile indir

1Fichier ile indir

1Fichier'den İndiremiyor musun? Tıklayın!


Mega ile indir

Bunun için üzgünüz ancak, bu linke sadece premium üyeler erişebilir.

Filmbol Cloud



Konu ile Alakalı Benzer Konular
Konular Yazar Yorumlar Okunma Son Yorum
Filmin Yayınlanma Tarihi: 2020
Zengo (Zengo) - 2020 - TR - BRRip XviD BroserBros 0 21 , Saat: 14:08
Son Yorum: BroserBros
Filmin Yayınlanma Tarihi: 2019
Yalan Dolan (Yalan Dolan) - 2019 - TR - BRRip XviD BroserBros 0 20 , Saat: 13:57
Son Yorum: BroserBros
Filmin Yayınlanma Tarihi: 2019
Hatıra (The Souvenir) - 2019 - TR - BRRip XviD BroserBros 0 20 , Saat: 13:04
Son Yorum: BroserBros
Filmin Yayınlanma Tarihi: 2020
My Spy (My Spy) - 2020 - TR - BRRip XviD BroserBros 0 7 , Saat: 12:53
Son Yorum: BroserBros
Filmin Yayınlanma Tarihi: 2019
Luce (Luce) - 2019 - TR - BRRip XviD BroserBros 0 31 28-11-2020, Saat: 17:58
Son Yorum: BroserBros

Hızlı Menü: