Filmbol Forum Film İndir 3D v Fantastik Canavarlar Nelerdir, Nerede Bulunurlar? (Fantastic Beasts and Where to Find Them) - 2016 - TR+ORG - 3D
Moderatör Alımları Başladı! Başvuru yapmak için tıklayın.
Filmbol Premium'da %50'e varan indirim fırsatı!
Fantastik Canavarlar Nelerdir, Nerede Bulunurlar? (Fantastic Beasts and Where to Find Them) - 2016 - TR+ORG - 3D
BroserBros
Fantastik Canavarlar Nelerdir, Nerede Bulunurlar? (Fantastic Beasts and Where to Find Them) - 2016 - TR+ORG - 3D
0
182
  • Derecelendirme: 0/5 - 0 oy
  • 1
  • 2
  • 3
  • 4
  • 5
Konuyu Okuyanlar:1 Ziyaretçi
Şuan Offine!
Filmin Yayınlanma Tarihi: 2016 
Şuan Offine!
BroserBros Kurucu Admin
*******
Admin

Vizyon Tarihi


18 Kasım 2016

imdb puanı


7,3 / 400,000

süre


132 dakika

Editör Puanı


8,5 / 10

Video Format: Mkv


Matroska (.MKV)

Ses Kodek: AC3


Audio Coding 3 (AC3)

sürüm


x264 | 3D | BluRay

Boyutlar


2,45 GB



 Fantastik Canavarlar Nelerdir, Nerede Bulunurlar?



Harry Potter'ın Newt Scamander'ın kitabını okumasından 70 yıl önceye giden filmde, Newt Scamander'ın kitabı yazdığı yılları ve onun New York'ta geçen akıl almaz maceralarını konu alıyor. Newt Scamander gizli cadı ve büyücü komitesine üye değildir ve kural gereği onun yaptıklarını kontrol etmesi gerekenler de bu komitedir. Ancak Newt Scamander kendi dünyasında yaşamaktadır ve kurallara uymadığında komite ile ters düşecektir...

Fantastik Canavarlar Nelerdir, Nerede Bulunurlar? (2016) (Fantastic Beasts and Where to Find Them) Filmi Imdb'den 400,000 kişi tarafından oylandı ve 7,3 puan aldı. Bu film için editör puanı 8,5 olarak belirlendi. İyi Seyirler!

Teknik Detaylar

Kod :
General
Unique ID                                : 262208417884493942896035219970774435979 (0xC543811E390FF4E8494BC845F2C2888B)
Complete name                            : /root/Desktop/7/Fantastik.Canavarlar.Nelerdir.Nerelerde.Bulunurlar.2016.x264.3D.HSBS.BluRay.TR.ENG.Filmbol.mkv
Format                                  : Matroska
Format version                          : Version 4 / Version 2
File size                                : 2.45 GiB
Duration                                : 2h 12mn
Overall bit rate                        : 2 641 Kbps
Movie name                              : Fantastik Canavalarlar Nelerdir, Nerede Bulunurlar - Fantastic Beasts And Where To Find Them - 2016 | Filmbol.org
Encoded date                            : UTC 2020-05-17 13:36:29
Writing application                      : mkvmerge v8.8.0 ('Wind at my back') 64bit
Writing library                          : libebml v1.3.3 + libmatroska v1.4.4

Video
ID                                      : 1
Format                                  : AVC
Format/Info                              : Advanced Video Codec
Format profile                          : High@L4.1
Format settings, CABAC                  : Yes
Format settings, ReFrames                : 4 frames
Codec ID                                : V_MPEG4/ISO/AVC
Duration                                : 2h 12mn
Bit rate                                : 2 050 Kbps
Width                                    : 1 920 pixels
Height                                  : 800 pixels
Display aspect ratio                    : 2.40:1
Frame rate mode                          : Constant
Frame rate                              : 23.976 (24000/1001) fps
Color space                              : YUV
Chroma subsampling                      : 4:2:0
Bit depth                                : 8 bits
Scan type                                : Progressive
Bits/(Pixel*Frame)                      : 0.056
Stream size                              : 1.90 GiB (78%)
Title                                    : 3D - Filmbol.org
Writing library                          : x264 core 148
Encoding settings                        : cabac=1 / ref=4 / deblock=1:-1:-1 / analyse=0x3:0x133 / me=umh / subme=9 / psy=1 / psy_rd=1.00:0.15 / mixed_ref=1 / me_range=24 / chroma_me=1 / trellis=2 / 8x8dct=1 / cqm=0 / deadzone=21,11 / fast_pskip=0 / chroma_qp_offset=-3 / threads=12 / lookahead_threads=1 / sliced_threads=0 / nr=0 / decimate=1 / interlaced=0 / bluray_compat=0 / constrained_intra=0 / bframes=3 / b_pyramid=2 / b_adapt=2 / b_bias=0 / direct=3 / weightb=1 / open_gop=0 / weightp=2 / keyint=250 / keyint_min=23 / scenecut=40 / intra_refresh=0 / rc_lookahead=60 / rc=2pass / mbtree=1 / bitrate=2050 / ratetol=1.0 / qcomp=0.60 / qpmin=0 / qpmax=69 / qpstep=4 / cplxblur=20.0 / qblur=0.5 / vbv_maxrate=31250 / vbv_bufsize=31250 / nal_hrd=none / filler=0 / ip_ratio=1.40 / aq=1:1.00
Default                                  : Yes
Forced                                  : No

Audio #1
ID                                      : 2
Format                                  : AC-3
Format/Info                              : Audio Coding 3
Mode extension                          : CM (complete main)
Format settings, Endianness              : Big
Codec ID                                : A_AC3
Duration                                : 2h 12mn
Bit rate mode                            : Constant
Bit rate                                : 448 Kbps
Channel(s)                              : 6 channels
Channel positions                        : Front: L C R, Side: L R, LFE
Sampling rate                            : 48.0 KHz
Frame rate                              : 31.250 fps (1536 spf)
Compression mode                        : Lossy
Stream size                              : 426 MiB (17%)
Title                                    : Türkçe - Filmbol.org
Language                                : Turkish
Default                                  : Yes
Forced                                  : Yes

Audio #2
ID                                      : 3
Format                                  : AAC
Format/Info                              : Advanced Audio Codec
Format profile                          : LC
Codec ID                                : A_AAC
Duration                                : 2h 12mn
Bit rate                                : 132 Kbps
Channel(s)                              : 2 channels
Channel positions                        : Front: L R
Sampling rate                            : 48.0 KHz
Frame rate                              : 46.875 fps (1024 spf)
Compression mode                        : Lossy
Delay relative to video                  : 40ms
Stream size                              : 126 MiB (5%)
Title                                    : İngilizce - Filmbol.org
Default                                  : No
Forced                                  : No

Text #1
ID                                      : 4
Format                                  : PGS
Muxing mode                              : zlib
Codec ID                                : S_HDMV/PGS
Codec ID/Info                            : Picture based subtitle format used on BDs/HD-DVDs
Duration                                : 2h 11mn
Bit rate                                : 275 bps
Count of elements                        : 76
Stream size                              : 267 KiB (0%)
Title                                    : Zorunlu Altyazı - Filmbol.org
Default                                  : Yes
Forced                                  : Yes

Text #2
ID                                      : 5
Format                                  : PGS
Muxing mode                              : zlib
Codec ID                                : S_HDMV/PGS
Codec ID/Info                            : Picture based subtitle format used on BDs/HD-DVDs
Duration                                : 2h 12mn
Bit rate                                : 7 132 bps
Count of elements                        : 2648
Stream size                              : 6.76 MiB (0%)
Title                                    : Türkçe Altyazı - Filmbol.org
Default                                  : No
Forced                                  : No

Film Detayları


 Fantastik Canavarlar Nelerdir, Nerede Bulunurlar?

 Fantastik Canavarlar Nelerdir, Nerede Bulunurlar?

 Fantastik Canavarlar Nelerdir, Nerede Bulunurlar?


Film Fragmanı


Film Detayları

Uptobox ile indir

1Fichier ile indir

1Fichier'den İndiremiyor musun? Tıklayın!


Mega ile indir

Bunun için üzgünüz ancak, bu linke sadece premium üyeler erişebilir.

Filmbol Cloud



Konu ile Alakalı Benzer Konular
Konular Yazar Yorumlar Okunma Son Yorum
Filmin Yayınlanma Tarihi: 2016
Moana (Moana) - 2016 - TR+ORG - 3D BroserBros 0 196 19-05-2020, Saat: 10:47
Son Yorum: BroserBros
Filmin Yayınlanma Tarihi: 2016
Assassin's Creed (Suikastçinin İnancı) - 2016 - TR+ORG - 3D BroserBros 0 239 16-05-2020, Saat: 22:51
Son Yorum: BroserBros
Filmin Yayınlanma Tarihi: 2016
Karanlıklar Ülkesi: Kan Savaşları (Underworld: Blood Wars) - 2016 - TR+ORG - 3D BroserBros 0 149 16-05-2020, Saat: 22:34
Son Yorum: BroserBros
Filmin Yayınlanma Tarihi: 2016
Uzay Yolcuları (Passengers) - 2016 - TR+ORG - 3D BroserBros 0 120 13-05-2020, Saat: 17:20
Son Yorum: BroserBros
Filmin Yayınlanma Tarihi: 2019
Godzilla 2: Canavarlar Kralı (King of the Monsters) Türkçe Dublaj BLURAY m3D İndir BroserBros 13 1,184 29-01-2020, Saat: 03:58
Son Yorum: entekeli

Hızlı Menü: