Filmbol Forum Film İndir 720P v Fakir: Bir Hint Fakiri'nin Olağanüstü Yolculuğu (2018) Türkçe Dublaj 720P İndir
Filmbol'da moderatör olmak ister misiniz? Bizimle iletişime geçmek için tıklayın!
Fakir: Bir Hint Fakiri'nin Olağanüstü Yolculuğu (2018) Türkçe Dublaj 720P İndir
BroserBros
Fakir: Bir Hint Fakiri'nin Olağanüstü Yolculuğu (2018) Türkçe Dublaj 720P İndir
2
262
  • Derecelendirme: 0/5 - 0 oy
  • 1
  • 2
  • 3
  • 4
  • 5
Konuyu Okuyanlar:1 Ziyaretçi
Şuan Online!
Filmin Yayınlanma Tarihi: 2018 
Şuan Online!
BroserBros Kurucu Admin
*******
Admin

Vizyon Tarihi


29 Haziran 2018

imdb puanı


6,9 / 5,000

süre


92 dakika

Editör Puanı


6,4

Video Format: Mkv


Matroska (.MKV)

Ses Kodek: AC3


Audio Coding 3 (AC3)

sürüm


x264 | 720P | BLURAY

Boyutlar


0,85



Fakir: Bir Hint Fakiri'nin Olağanüstü Yolculuğu



Film Detayları

Fakir: Bir Hint Fakiri'nin Olağanüstü Yolculuğu, hiç tanımadığı babasını bulmak için yola koyulan Aja'nın maceralarını anlatıyor. Hint Fakiri Aja, annesinin ölümünün ardından yapayalnız kalmıştır. Babasını tanımayan Aja, onu bulmaya karar verir ve bunun için Fransa’ya gider. Babasını bulmak için çıktığı bu yolculuk Aja’nın hiç de düşlediği gibi gitmez. Paris’te taksiye binen Aja gitmek istediği yer yerine kendisini şehir dışındaki İKEA’da bulur. Bu sırada da Marie isimli bir kıza aşık olmuştur. Aja, İKEA’da yanlışlıkla bir dolabın içinde kalıp kargolanınca bu sefer de kendisini Avrupa’da başka bir şehirde bulur. Yol boyunca birçok yere savrulan Aja, Paris'e geri dönüp sevdiği kız Marie’ye kavuşup babasını bulabilecek midir?

Fakir: Bir Hint Fakiri'nin Olağanüstü Yolculuğu (The Extraordinary Journey of the Fakir) Filmi Imdb'den 5,000 kişi tarafından oylandı ve 6,9 puan aldı. Bu film için editör puanı 6,4 olarak belirlendi. İyi Seyirler!


Teknik Detaylar


Kod :
General
Unique ID                                : 202708655718570567111348362590759024267 (0x9880445A572FFF7E05C8B3A0CDF5F68B)
Complete name                            : /root/Desktop/9/Fakir.Bir.Hint.Fakirinin.Olağanüstü.Yolculuğu.2018.720p.BLURAY.x264.TR.Filmbol.mkv
Format                                   : Matroska
Format version                           : Version 4 / Version 2
File size                                : 852 MiB
Duration                                 : 1h 35mn
Overall bit rate                         : 1 243 Kbps
Movie name                               : Fakir: Bir Hint Fakiri'nin Olağanüstü Yolculuğu (2018) - Filmbol.org
Encoded date                             : UTC 2019-12-24 20:38:14
Writing application                      : mkvmerge v35.0.0 ('All The Love In The World') 64-bit
Writing library                          : libebml v1.3.9 + libmatroska v1.5.2

Video
ID                                       : 1
Format                                   : AVC
Format/Info                              : Advanced Video Codec
Format profile                           : High@L4.1
Format settings, CABAC                   : Yes
Format settings, ReFrames                : 4 frames
Codec ID                                 : V_MPEG4/ISO/AVC
Duration                                 : 1h 35mn
Bit rate                                 : 1 050 Kbps
Width                                    : 1 280 pixels
Height                                   : 534 pixels
Display aspect ratio                     : 2.40:1
Original display aspect ratio            : 2.40:1
Frame rate mode                          : Constant
Frame rate                               : 24.000 fps
Color space                              : YUV
Chroma subsampling                       : 4:2:0
Bit depth                                : 8 bits
Scan type                                : Progressive
Bits/(Pixel*Frame)                       : 0.064
Stream size                              : 720 MiB (84%)
Title                                    : 720P - Filmbol.org
Writing library                          : x264 core 155
Encoding settings                        : cabac=1 / ref=4 / deblock=1:-1:-1 / analyse=0x3:0x133 / me=umh / subme=9 / psy=1 / psy_rd=1.00:0.15 / mixed_ref=1 / me_range=24 / chroma_me=1 / trellis=2 / 8x8dct=1 / cqm=0 / deadzone=21,11 / fast_pskip=0 / chroma_qp_offset=-3 / threads=17 / lookahead_threads=1 / sliced_threads=0 / nr=0 / decimate=1 / interlaced=0 / bluray_compat=0 / constrained_intra=0 / bframes=3 / b_pyramid=2 / b_adapt=2 / b_bias=0 / direct=3 / weightb=1 / open_gop=0 / weightp=2 / keyint=250 / keyint_min=23 / scenecut=40 / intra_refresh=0 / rc_lookahead=60 / rc=2pass / mbtree=1 / bitrate=1050 / ratetol=1.0 / qcomp=0.60 / qpmin=0 / qpmax=69 / qpstep=4 / cplxblur=20.0 / qblur=0.5 / vbv_maxrate=31250 / vbv_bufsize=31250 / nal_hrd=none / filler=0 / ip_ratio=1.40 / aq=1:1.00
Default                                  : Yes
Forced                                   : No

Audio
ID                                       : 2
Format                                   : AC-3
Format/Info                              : Audio Coding 3
Mode extension                           : CM (complete main)
Format settings, Endianness              : Big
Codec ID                                 : A_AC3
Duration                                 : 1h 35mn
Bit rate mode                            : Constant
Bit rate                                 : 192 Kbps
Channel(s)                               : 2 channels
Channel positions                        : Front: L R
Sampling rate                            : 48.0 KHz
Frame rate                               : 31.250 fps (1536 spf)
Compression mode                         : Lossy
Stream size                              : 132 MiB (15%)
Title                                    : Türkçe - Filmbol.org
Language                                 : Turkish
Default                                  : Yes
Forced                                   : No

Film Detayları


Fakir: Bir Hint Fakiri'nin Olağanüstü Yolculuğu

Fakir: Bir Hint Fakiri'nin Olağanüstü Yolculuğu

Fakir: Bir Hint Fakiri'nin Olağanüstü Yolculuğu


Film Fragmanı


Film Detayları

Mini 720P İndir



Uptobox ile indir

1Fichier ile indir

1Fichier'den İndiremiyor musun? Tıklayın!


Mega ile indir

MediaFire ile indir

Şuan Offine!
Şuan Offine!
back-ir Süper Üye
***
Super Üye

  • Konular0
  • Mesajlar29
  • Rep puanı 1
Ailecek izlemek için,
Şuan Offine!
Şuan Offine!
stb Uzman Üye
**
Uzman Üye

  • Konular0
  • Mesajlar14
  • Rep puanı 0
teşekkürler


Konu ile Alakalı Benzer Konular
Konular Yazar Yorumlar Okunma Son Yorum
Filmin Yayınlanma Tarihi: 2020
Zengo (Zengo) - 2020 - TR+ORG - 720P BroserBros 0 19 , Saat: 14:08
Son Yorum: BroserBros
Filmin Yayınlanma Tarihi: 2019
Hatıra (The Souvenir) - 2019 - TR+ORG - 720P BroserBros 0 19 , Saat: 13:04
Son Yorum: BroserBros
Filmin Yayınlanma Tarihi: 2020
My Spy (My Spy) - 2020 - TR+ORG - 720P BroserBros 0 21 , Saat: 12:54
Son Yorum: BroserBros
Filmin Yayınlanma Tarihi: 2019
Luce (Luce) - 2019 - TR+ORG - 720P BroserBros 0 28 28-11-2020, Saat: 17:58
Son Yorum: BroserBros
Filmin Yayınlanma Tarihi: 2020
Aşka İnan (I Still Believe) - 2020 - TR+ORG - 720P BroserBros 0 27 28-11-2020, Saat: 16:58
Son Yorum: BroserBros

Hızlı Menü: