Filmbol Forum Film İndir 1080P v Fakir: Bir Hint Fakiri'nin Olağanüstü Yolculuğu (2018) Türkçe Dublaj 1080P İndir
Filmbol'da moderatör olmak ister misiniz? Bizimle iletişime geçmek için tıklayın!
Fakir: Bir Hint Fakiri'nin Olağanüstü Yolculuğu (2018) Türkçe Dublaj 1080P İndir
BroserBros
Fakir: Bir Hint Fakiri'nin Olağanüstü Yolculuğu (2018) Türkçe Dublaj 1080P İndir
1
292
  • Derecelendirme: 0/5 - 0 oy
  • 1
  • 2
  • 3
  • 4
  • 5
Konuyu Okuyanlar:1 Ziyaretçi
Şuan Online!
Şuan Online!
BroserBros Kurucu Admin
*******
Admin

Vizyon Tarihi


29 Haziran 2018

imdb puanı


6,9 / 5,000

süre


92 dakika

Editör Puanı


6,4

Video Format: Mkv


Matroska (.MKV)

Ses Kodek: AC3


Audio Coding 3 (AC3)

sürüm


x264 | 1080P | BLURAY

Boyutlar


1,57



Fakir: Bir Hint Fakiri'nin Olağanüstü Yolculuğu



Film Detayları

Fakir: Bir Hint Fakiri'nin Olağanüstü Yolculuğu, hiç tanımadığı babasını bulmak için yola koyulan Aja'nın maceralarını anlatıyor. Hint Fakiri Aja, annesinin ölümünün ardından yapayalnız kalmıştır. Babasını tanımayan Aja, onu bulmaya karar verir ve bunun için Fransa’ya gider. Babasını bulmak için çıktığı bu yolculuk Aja’nın hiç de düşlediği gibi gitmez. Paris’te taksiye binen Aja gitmek istediği yer yerine kendisini şehir dışındaki İKEA’da bulur. Bu sırada da Marie isimli bir kıza aşık olmuştur. Aja, İKEA’da yanlışlıkla bir dolabın içinde kalıp kargolanınca bu sefer de kendisini Avrupa’da başka bir şehirde bulur. Yol boyunca birçok yere savrulan Aja, Paris'e geri dönüp sevdiği kız Marie’ye kavuşup babasını bulabilecek midir?

Fakir: Bir Hint Fakiri'nin Olağanüstü Yolculuğu (The Extraordinary Journey of the Fakir) Filmi Imdb'den 5,000 kişi tarafından oylandı ve 6,9 puan aldı. Bu film için editör puanı 6,4 olarak belirlendi. İyi Seyirler!


Teknik Detaylar


Kod :
General
Unique ID                                : 219200401455366558364158944845926325663 (0xA4E87631DEC7B053DE7702A6D1415D9F)
Complete name                            : /root/Desktop/9/Fakir.Bir.Hint.Fakirinin.Olağanüstü.Yolculuğu.2018.1080p.BLURAY.x264.TR.Filmbol.mkv
Format                                   : Matroska
Format version                           : Version 4 / Version 2
File size                                : 1.57 GiB
Duration                                 : 1h 35mn
Overall bit rate                         : 2 343 Kbps
Movie name                               : Fakir: Bir Hint Fakiri'nin Olağanüstü Yolculuğu (2018) - Filmbol.org
Encoded date                             : UTC 2019-12-24 20:38:56
Writing application                      : mkvmerge v35.0.0 ('All The Love In The World') 64-bit
Writing library                          : libebml v1.3.9 + libmatroska v1.5.2

Video
ID                                       : 1
Format                                   : AVC
Format/Info                              : Advanced Video Codec
Format profile                           : High@L4.1
Format settings, CABAC                   : Yes
Format settings, ReFrames                : 4 frames
Codec ID                                 : V_MPEG4/ISO/AVC
Duration                                 : 1h 35mn
Bit rate                                 : 2 150 Kbps
Width                                    : 1 920 pixels
Height                                   : 800 pixels
Display aspect ratio                     : 2.40:1
Frame rate mode                          : Constant
Frame rate                               : 24.000 fps
Color space                              : YUV
Chroma subsampling                       : 4:2:0
Bit depth                                : 8 bits
Scan type                                : Progressive
Bits/(Pixel*Frame)                       : 0.058
Stream size                              : 1.44 GiB (92%)
Title                                    : 1080P - Filmbol.org
Writing library                          : x264 core 155
Encoding settings                        : cabac=1 / ref=4 / deblock=1:-1:-1 / analyse=0x3:0x133 / me=umh / subme=9 / psy=1 / psy_rd=1.00:0.15 / mixed_ref=1 / me_range=24 / chroma_me=1 / trellis=2 / 8x8dct=1 / cqm=0 / deadzone=21,11 / fast_pskip=0 / chroma_qp_offset=-3 / threads=18 / lookahead_threads=1 / sliced_threads=0 / nr=0 / decimate=1 / interlaced=0 / bluray_compat=0 / constrained_intra=0 / bframes=3 / b_pyramid=2 / b_adapt=2 / b_bias=0 / direct=3 / weightb=1 / open_gop=0 / weightp=2 / keyint=250 / keyint_min=23 / scenecut=40 / intra_refresh=0 / rc_lookahead=60 / rc=2pass / mbtree=1 / bitrate=2150 / ratetol=1.0 / qcomp=0.60 / qpmin=0 / qpmax=69 / qpstep=4 / cplxblur=20.0 / qblur=0.5 / vbv_maxrate=31250 / vbv_bufsize=31250 / nal_hrd=none / filler=0 / ip_ratio=1.40 / aq=1:1.00
Default                                  : Yes
Forced                                   : No

Audio
ID                                       : 2
Format                                   : AC-3
Format/Info                              : Audio Coding 3
Mode extension                           : CM (complete main)
Format settings, Endianness              : Big
Codec ID                                 : A_AC3
Duration                                 : 1h 35mn
Bit rate mode                            : Constant
Bit rate                                 : 192 Kbps
Channel(s)                               : 2 channels
Channel positions                        : Front: L R
Sampling rate                            : 48.0 KHz
Frame rate                               : 31.250 fps (1536 spf)
Compression mode                         : Lossy
Stream size                              : 132 MiB (8%)
Title                                    : Türkçe - Filmbol.org
Language                                 : Turkish
Default                                  : Yes
Forced                                   : No

Film Detayları


Fakir: Bir Hint Fakiri'nin Olağanüstü Yolculuğu

Fakir: Bir Hint Fakiri'nin Olağanüstü Yolculuğu

Fakir: Bir Hint Fakiri'nin Olağanüstü Yolculuğu


Film Fragmanı


Film Detayları

Mini 1080P İndir



Uptobox ile indir

1Fichier ile indir

1Fichier'den İndiremiyor musun? Tıklayın!


Mega ile indir

MediaFire ile indir

Şuan Offine!
Şuan Offine!
tolga00 Uzman Üye
**
Uzman Üye

  • Konular0
  • Mesajlar8
  • Rep puanı 0
astalavista baby


Konu ile Alakalı Benzer Konular
Konular Yazar Yorumlar Okunma Son Yorum
Filmin Yayınlanma Tarihi: 2020
Deathstroke Şövalyeler ve Ejderhalar (Deathstroke Knights & Dragons: The Movie) - 2020 - TR+ORG - 1080P BroserBros 0 33 23-11-2020, Saat: 18:31
Son Yorum: BroserBros
Filmin Yayınlanma Tarihi: 2019
15 Dakika Savaş (L'intervention) - 2019 - TR+ORG - 1080P BroserBros 0 35 23-11-2020, Saat: 17:42
Son Yorum: BroserBros
Filmin Yayınlanma Tarihi: 2020
Sürprizli Gece (The Sleepover) - 2020 - TR+ORG - 1080P BroserBros 0 36 23-11-2020, Saat: 16:19
Son Yorum: BroserBros
Filmin Yayınlanma Tarihi: 2020
Feride (Feride) - 2020 - TR+ORG - 1080P BroserBros 0 67 22-11-2020, Saat: 20:24
Son Yorum: BroserBros
Filmin Yayınlanma Tarihi: 2019
Gel Babacığına (Come to Daddy) - 2019 - TR+ORG - 1080P BroserBros 0 34 22-11-2020, Saat: 17:43
Son Yorum: BroserBros

Hızlı Menü: