Filmbol Forum Film İndir FHD - FULL HD v Extraction (Extraction) - 2020 - TR+ENG - FHD
Extraction (Extraction) - 2020 - TR+ENG - FHD
BroserBros
Extraction (Extraction) - 2020 - TR+ENG - FHD
0
69
  • Derecelendirme: 0/5 - 0 oy
  • 1
  • 2
  • 3
  • 4
  • 5
Konuyu Okuyanlar:1 Ziyaretçi
Şuan Online!
Filmin Yayınlanma Tarihi: 2020 
Şuan Online!
BroserBros Kurucu Admin
*******
Admin

Vizyon Tarihi


24 Nisan 2020

imdb puanı


6,9 / 40,000

süre


114 dakika

Editör Puanı


6,5 / 10

Video Format: Mkv


Matroska (.MKV)

Ses Kodek: AC3


Audio Coding 3 (AC3)

sürüm


x264 | 1080P | WEB-DL

Boyutlar


2,03 GB



 Extraction



Uyuşturucu ve Silahlara çocukları ciddi şekilde etkilemekte. Bu yüzden de bazı çocuklar uyuşturucu kullanımı ve silah satıcılığını güzel bir meslek olarak görebiliyor. Extraction filminde bir çocuk bu şekilde etkilenmiş ve bir piyon olarak kullanılmaktadır. Babası ne yapacağını bilemez ve bir gün Tyler Rake isminde adam kiralar. Adamın görevi ise çocuğu bu işlerden kurtarmaktır. Hiç bir şeyden korkusu olmayan Rake, bu özel durum karşısında elinden gelenin daha fazlasını yapar...

Extraction (2020) (Extraction) Filmi Imdb'den 40,000 kişi tarafından oylandı ve 6,9 puan aldı. Bu film için editör puanı 6,5 olarak belirlendi. İyi Seyirler!

Teknik Detaylar

Kod :
General
Unique ID                                : 38144353976822537653001518037764371407 (0x1CB255D9B733957A806CBE31636773CF)
Complete name                            : /root/Desktop/1/Extraction.2020.1080p.WEB-DL.x264.TR.Filmbol.mkv
Format                                  : Matroska
Format version                          : Version 4 / Version 2
File size                                : 2.03 GiB
Duration                                : 1h 57mn
Overall bit rate                        : 2 472 Kbps
Movie name                              : Extraction (2020) - Filmbol.org
Encoded date                            : UTC 2020-04-26 13:13:47
Writing application                      : mkvmerge v8.8.0 ('Wind at my back') 64bit
Writing library                          : libebml v1.3.3 + libmatroska v1.4.4

Video
ID                                      : 1
Format                                  : AVC
Format/Info                              : Advanced Video Codec
Format profile                          : Main@L4
Format settings, CABAC                  : Yes
Format settings, ReFrames                : 2 frames
Codec ID                                : V_MPEG4/ISO/AVC
Duration                                : 1h 57mn
Bit rate                                : 2 086 Kbps
Width                                    : 1 920 pixels
Height                                  : 1 080 pixels
Display aspect ratio                    : 16:9
Frame rate mode                          : Constant
Frame rate                              : 24.000 fps
Color space                              : YUV
Chroma subsampling                      : 4:2:0
Bit depth                                : 8 bits
Scan type                                : Progressive
Bits/(Pixel*Frame)                      : 0.042
Stream size                              : 1.71 GiB (84%)
Title                                    : 1080P - Filmbol.org
Default                                  : Yes
Forced                                  : No

Audio
ID                                      : 2
Format                                  : AC-3
Format/Info                              : Audio Coding 3
Mode extension                          : CM (complete main)
Format settings, Endianness              : Big
Codec ID                                : A_AC3
Duration                                : 1h 57mn
Bit rate mode                            : Constant
Bit rate                                : 384 Kbps
Channel(s)                              : 6 channels
Channel positions                        : Front: L C R, Side: L R, LFE
Sampling rate                            : 48.0 KHz
Frame rate                              : 31.250 fps (1536 spf)
Compression mode                        : Lossy
Stream size                              : 323 MiB (16%)
Title                                    : Türkçe - Filmbol.org
Language                                : Turkish
Default                                  : Yes
Forced                                  : No

Text
ID                                      : 3
Format                                  : UTF-8
Codec ID                                : S_TEXT/UTF8
Codec ID/Info                            : UTF-8 Plain Text
Duration                                : 1h 42mn
Bit rate                                : 7 bps
Count of elements                        : 209
Stream size                              : 5.62 KiB (0%)
Title                                    : KISIM
Language                                : Turkish
Default                                  : Yes
Forced                                  : Yes

Film Detayları


 Extraction

 Extraction

 Extraction


Film Fragmanı


Film Detayları

Uptobox ile indir

1Fichier ile indir

1Fichier'den İndiremiyor musun? Tıklayın!


Mega ile indir

Bunun için üzgünüz ancak, bu linke sadece premium üyeler erişebilir.

Filmbol Cloud



Konu ile Alakalı Benzer Konular
Konular Yazar Yorumlar Okunma Son Yorum
Filmin Yayınlanma Tarihi: 2020
Justice League Dark: Apokolips War (Adalet Birliği) - 2020 - TR+ORG - FHD - x264 BroserBros 0 32 31-05-2020, Saat: 23:01
Son Yorum: BroserBros
Filmin Yayınlanma Tarihi: 2020
Muhabbet Kuşları (The Lovebirds) - 2020 - TR+ORG - FHD - x264 BroserBros 0 48 30-05-2020, Saat: 22:43
Son Yorum: BroserBros
Filmin Yayınlanma Tarihi: 2020
Patron Gibi (Like a Boss) - 2020 - TR+ORG - FHD - x264 BroserBros 0 63 29-05-2020, Saat: 15:44
Son Yorum: BroserBros
Filmin Yayınlanma Tarihi: 2020
Yanlış Missy (The Wrong Missy) - 2020 - TR+ORG - FHD BroserBros 0 48 15-05-2020, Saat: 22:40
Son Yorum: BroserBros
Filmin Yayınlanma Tarihi: 2020
Dolittle (Dolittle) - 2020 - TR+ORG - FHD BroserBros 0 73 15-05-2020, Saat: 22:29
Son Yorum: BroserBros

Hızlı Menü: