Hoşgeldin, Ziyaretçi: Giriş Yap Üye Ol


stats
Adblock'u kapattıysanız tıklayın.
Hoşgeldiniz!
Filmbol'u tercih ettiğiniz için teşekkürler, ancak ablock kullanarak devam edemezsiniz.
Merak etmeyin. Heryerden ardı ardına çıkan reklamlar görmeyeceksiniz :)

Sadece site içi 1 reklam göreceksin ve bu site gezintini etkilemeyecek.
Konuyu Oyla:
  • Derecelendirme: 0/5 - 0 oy
  • 1
  • 2
  • 3
  • 4
  • 5
Title: Evcil Hayvanların Gizli Yaşamı 2 (Pets 2) Türkçe Dublaj BLURAY m720P İndir
Gösterim Stili
#1
Filmin Yayınlanma Tarihi: 2019 

indirme türü


Bulut + Premium

vizyon tarihi


05 Haziran 2019

Boyutlar


0,85

diller


[TR]

altyazilar


KISIM [Eklenebilir]

Video Format: Mkv


Matroska (.MKV)

Video Detay


MPEG-4, 1599 Kbps, 0,98GB

imdb puanı


6,5 / 10,0 / 30,000

süre


86 dakika

Ses Kodek: AC3


Audio Coding 3 (AC3)

Ses Detay


384 Kbps, 6 Kanal, 236 Mb

Editör Puanı


6,2

Genislik Yukseklik


1280-694

sürüm


x264 | m720P





Evcil Hayvanlarin Gizli Yasami 2


Film Detayları

2016 yılında "Her gün işe giderken evde bıraktığınız evcil hayvanlarınız, siz eve dönene kadar geçen süreç içerisinde ne yapıyor?" önermesi ile yola çıkan Evcil Hayranların Gizli Yaşamı filminin devam halkasında macera kaldığı yerden devam ediyor. Yönetmen koltuğunda ilk filmin de yönetmenlerinden olan Chris Renaud'un oturduğu filmin seslendirme kadrosunda Eric Stonestreet ve Kevin Hart'ın yanı sıra Ellie Kemper, Lake Bell, Jenny Slate, Bobby Moynihan, Hannibal Buress ve Dana Carvey gibi isimler yer alıyor.

Evcil Hayvanların Gizli Yaşamı 2 (The Secret Life of Pets 2) Filmi Imdb'den 30,000 kişi tarafından oylandı ve 6,5 puan aldı. Bu film için editör puanı 6,2 olarak belirlendi. İyi Seyirler!


Teknik Detaylar


Kod:
General
Complete name                            : Evcil.Hayvanların.Gizli.Yaşamı.2.2019.m720p.BLURAY.x264.TR.Filmbol.mkv
Format                                   : Matroska
Format version                           : Version 4 / Version 2
File size                                : 853 MiB
Duration                                 : 1h 26mn
Overall bit rate                         : 1 385 Kbps
Movie name                               : Evcil Hayvanların Gizli Yaşamı (2019) - Filmbol.org
Encoded date                             : UTC 2019-11-03 01:53:55
Writing application                      : mkvmerge v35.0.0 ('All The Love In The World') 64-bit
Writing library                          : libebml v1.3.9 + libmatroska v1.5.2

Video
ID                                       : 1
Format                                   : AVC
Format/Info                              : Advanced Video Codec
Format profile                           : High@L4.1
Format settings, CABAC                   : Yes
Format settings, ReFrames                : 4 frames
Codec ID                                 : V_MPEG4/ISO/AVC
Duration                                 : 1h 26mn
Bit rate                                 : 1 000 Kbps
Width                                    : 1 280 pixels
Height                                   : 694 pixels
Display aspect ratio                     : 1.85:1
Frame rate mode                          : Constant
Frame rate                               : 23.976 (24000/1001) fps
Color space                              : YUV
Chroma subsampling                       : 4:2:0
Bit depth                                : 8 bits
Scan type                                : Progressive
Bits/(Pixel*Frame)                       : 0.047
Stream size                              : 615 MiB (72%)
Title                                    : m720P - Filmbol.org
Writing library                          : x264 core 157
Default                                  : Yes
Forced                                   : No

Audio
ID                                       : 2
Format                                   : AC-3
Format/Info                              : Audio Coding 3
Mode extension                           : CM (complete main)
Format settings, Endianness              : Big
Codec ID                                 : A_AC3
Duration                                 : 1h 26mn
Bit rate mode                            : Constant
Bit rate                                 : 384 Kbps
Channel(s)                               : 6 channels
Channel positions                        : Front: L C R, Side: L R, LFE
Sampling rate                            : 48.0 KHz
Frame rate                               : 31.250 fps (1536 spf)
Compression mode                         : Lossy
Stream size                              : 236 MiB (28%)
Title                                    : Türkçe - Filmbol.org
Language                                 : Turkish
Default                                  : Yes
Forced                                   : No

Text
ID                                       : 3
Format                                   : UTF-8
Codec ID                                 : S_TEXT/UTF8
Codec ID/Info                            : UTF-8 Plain Text
Duration                                 : 1h 14mn
Bit rate                                 : 1 bps
Count of elements                        : 22
Stream size                              : 959 Bytes (0%)
Title                                    : KISIM
Language                                 : Turkish
Default                                  : Yes
Forced                                   : Yes

Film Detayları


Evcil Hayvanlarin Gizli Yasami 2

Evcil Hayvanlarin Gizli Yasami 2

Evcil Hayvanlarin Gizli Yasami 2


Film Fragmanı


Film Detayları

Mini 720P İndir


Uptobox ile indir

LetsUpload ile indir

Dosya Upload ile indir

Mega linki şuan da gizli. Kullanıma açmak için konuya yorum yapın ve ardından sayfayı yenileyin. Ayrıca bu linki açtığınızda reklamsız olarak erişebileceğinizi unutmayın.

Mega


Mediafire linki şuan da gizli. Kullanıma açmak için konuya yorum yapın ve ardından sayfayı yenileyin. Ayrıca bu linki açtığınızda reklamsız olarak erişebileceğinizi unutmayın.

Mediafire

 
Cevapla
#2
indirme seçenekleri bol çok iyi site
 
Cevapla
#3
Mehadan indirmek icin yorum yaziyom site cok guzel
 
Cevapla
  


Konu ile Alakalı Benzer Konular
Konular Yazar Yorumlar Okunma Son Yorum
Filmin Yayınlanma Tarihi: 2019 Oyuncak Hikayesi 4 (Toy Story 4) Türkçe Dublaj BLURAY m720P İndir BroserBros 5 133 , Saat: 05:29
Son Yorum: ozcanveli
Filmin Yayınlanma Tarihi: 2019 Ralph ve İnternet (Ralph Breaks the Internet) Türkçe Dublaj BLURAY m720P İndir BroserBros 5 204 13-10-2019, Saat: 17:41
Son Yorum: tenteci
Filmin Yayınlanma Tarihi: 2018 Örümcek Adam: Örümcek Evreninde (Spider-Man) Türkçe Dublaj BLURAY m720P İndir BroserBros 6 313 12-10-2019, Saat: 23:11
Son Yorum: imhotep

Hızlı Menü:


Browsing: 7 Ziyaretçi