Filmbol Forum Film İndir 1080P v Evcil Hayvanların Gizli Yaşamı 2 (Pets 2) Türkçe Dublaj BLURAY m1080P İndir
Mega linklerinin şikayet edilmemesi için global erişime kapatıp sadece yorum yapanlara açıyoruz. Bu linkleri gizleme işlemini mecburen yapıyoruz ve yorum yapmanızın siteye değil size faydası vardır. Teşekürler yazmayı çok görüp, Random/Spam mesajlar atarak Mega linklerini açmaya çalışan kullanıcılara önce süresiz ban, devam ederse IP ban atacağız.
Filmbol'da moderatör olmak ister misiniz? Bizimle iletişime geçmek için tıklayın!
Evcil Hayvanların Gizli Yaşamı 2 (Pets 2) Türkçe Dublaj BLURAY m1080P İndir
BroserBros
Evcil Hayvanların Gizli Yaşamı 2 (Pets 2) Türkçe Dublaj BLURAY m1080P İndir
19
1484
  • Derecelendirme: 5/5 - 1 oy
  • 1
  • 2
  • 3
  • 4
  • 5
Konuyu Okuyanlar:2 Ziyaretçi
Şuan Online!
Filmin Yayınlanma Tarihi: 2019 
WWW
Şuan Online!
BroserBros Kurucu Admin
*******
Admin





Ses Kodek: AC3


Audio Coding 3 (AC3)






Evcil Hayvanlarin Gizli Yasami 2



Teknik Detaylar


Kod :
General
Complete name                            : Evcil.Hayvanların.Gizli.Yaşamı.2.2019.m1080p.BLURAY.x264.TR.Filmbol.mkv
Format                                   : Matroska
Format version                           : Version 4 / Version 2
File size                                : 1.43 GiB
Duration                                 : 1h 26mn
Overall bit rate                         : 2 384 Kbps
Movie name                               : Evcil Hayvanların Gizli Yaşamı (2019) - Filmbol.org
Encoded date                             : UTC 2019-11-03 01:53:09
Writing application                      : mkvmerge v35.0.0 ('All The Love In The World') 64-bit
Writing library                          : libebml v1.3.9 + libmatroska v1.5.2

Video
ID                                       : 1
Format                                   : AVC
Format/Info                              : Advanced Video Codec
Format profile                           : [email protected]
Format settings, CABAC                   : Yes
Format settings, ReFrames                : 4 frames
Codec ID                                 : V_MPEG4/ISO/AVC
Duration                                 : 1h 26mn
Bit rate                                 : 2 000 Kbps
Width                                    : 1 920 pixels
Height                                   : 1 040 pixels
Display aspect ratio                     : 1.85:1
Frame rate mode                          : Constant
Frame rate                               : 23.976 (24000/1001) fps
Color space                              : YUV
Chroma subsampling                       : 4:2:0
Bit depth                                : 8 bits
Scan type                                : Progressive
Bits/(Pixel*Frame)                       : 0.042
Stream size                              : 1.20 GiB (84%)
Title                                    : 1080P - Filmbol.org
Writing library                          : x264 core 157
Default                                  : Yes
Forced                                   : No

Audio
ID                                       : 2
Format                                   : AC-3
Format/Info                              : Audio Coding 3
Mode extension                           : CM (complete main)
Format settings, Endianness              : Big
Codec ID                                 : A_AC3
Duration                                 : 1h 26mn
Bit rate mode                            : Constant
Bit rate                                 : 384 Kbps
Channel(s)                               : 6 channels
Channel positions                        : Front: L C R, Side: L R, LFE
Sampling rate                            : 48.0 KHz
Frame rate                               : 31.250 fps (1536 spf)
Compression mode                         : Lossy
Stream size                              : 236 MiB (16%)
Title                                    : Türkçe - Filmbol.org
Language                                 : Turkish
Default                                  : Yes
Forced                                   : No

Text
ID                                       : 3
Format                                   : UTF-8
Codec ID                                 : S_TEXT/UTF8
Codec ID/Info                            : UTF-8 Plain Text
Duration                                 : 1h 14mn
Bit rate                                 : 1 bps
Count of elements                        : 22
Stream size                              : 959 Bytes (0%)
Title                                    : KISIM
Language                                 : Turkish
Default                                  : Yes
Forced                                   : Yes

Film Detayları


Evcil Hayvanlarin Gizli Yasami 2

Evcil Hayvanlarin Gizli Yasami 2

Evcil Hayvanlarin Gizli Yasami 2


Film Fragmanı


Film Detayları

Mini 1080P İndir


Uptobox ile indir

b1je
Mega linki şuan da gizli. Kullanıma açmak için konuya yorum yapın ve ardından sayfayı yenileyin.

Mega


MediaFire ile indir

Google Drive linki şuan da gizli. Kullanıma açmak için konuya yorum yapın ve ardından sayfayı yenileyin.

Google Drive

Şuan Offine!
Şuan Offine!
Aspirin46 Süper Üye
***
Super Üye

  • Konular0
  • Mesajlar54
  • Rep puanı 0
SÜPER
Şuan Offine!
Şuan Offine!
Hellenger28 Uzman Üye
**
Uzman Üye

  • Konular0
  • Mesajlar15
  • Rep puanı 0
Harikaa ?
Şuan Offine!
Şuan Offine!
EBU Yeni Üye
*
Üye

  • Konular0
  • Mesajlar1
  • Rep puanı 0
AİLECEK İZLENEBİLİR BİR FİLM
Şuan Offine!
Şuan Offine!
arda_26 Uzman Üye
**
Uzman Üye

  • Konular0
  • Mesajlar6
  • Rep puanı 0
super bir film
Şuan Offine!
Şuan Offine!
TatKim Yeni Üye
*
Üye

  • Konular0
  • Mesajlar2
  • Rep puanı 0
tesekkurler
Şuan Offine!
Şuan Offine!
concovanni Uzman Üye
**
Uzman Üye

  • Konular0
  • Mesajlar12
  • Rep puanı 1
mükemmel
Şuan Offine!
Şuan Offine!
isimsizcapon Yeni Üye
*
Üye

  • Konular0
  • Mesajlar5
  • Rep puanı 0
kşskşaldiasd
Şuan Offine!
Şuan Offine!
arzuziki Yeni Üye
*
Üye

  • Konular0
  • Mesajlar3
  • Rep puanı 0
güzel
Şuan Offine!
Şuan Offine!
studionrg Uzman Üye
**
Uzman Üye

  • Konular0
  • Mesajlar9
  • Rep puanı 0
Teşekkürler.


Konu ile Alakalı Benzer Konular
Konular Yazar Yorumlar Okunma Son Yorum
Filmin Yayınlanma Tarihi: 2002
Harry Potter ve Sırlar Odası (Chamber of Secrets) Türkçe Dublaj BLURAY 1080P İndir BroserBros 25 2,998 18 dakika önce
Son Yorum: bjk1001
Filmin Yayınlanma Tarihi: 2018
Soğuk Savaş (Zimna wojna) Türkçe Dublaj BLURAY m1080P İndir BroserBros 2 453 28 dakika önce
Son Yorum: Axioma
Filmin Yayınlanma Tarihi: 2018
Sessiz Bir Yer (A Quiet Place) Türkçe Dublaj m1080P İndir BroserBros 7 3,046 , Saat: 16:10
Son Yorum: darkknight.1980
Filmin Yayınlanma Tarihi: 2012
Rüzgar Yükseliyor (Kaze tachinu) Türkçe Dublaj BLURAY 1080P İndir BroserBros 6 832 28-02-2021, Saat: 21:56
Son Yorum: gamedeveloper68
Filmin Yayınlanma Tarihi: 2018
Yenilmezler: Sonsuzluk Savaşı (2018) Türkçe Dublaj m1080P İndir BroserBros 9 7,466 28-02-2021, Saat: 14:55
Son Yorum: ahmettuncr

Hızlı Menü: