Hoşgeldin, Ziyaretçi: Giriş Yap Üye Ol


Konuyu Oyla:
  • Derecelendirme: 0/5 - 0 oy
  • 1
  • 2
  • 3
  • 4
  • 5
Title: Erkekler Ne İster? (What Men Want?) Türkçe Dublaj BLURAY m1080P İndir
Gösterim Stili
#1
Filmin Yayınlanma Tarihi: 2019 

indirme türü


Bulut + Premium

vizyon tarihi


08 Ocak 2019

Boyutlar


2,07

diller


[TR]

altyazilar


KISIM [Eklenebilir]

Video Format: Mkv


Matroska (.MKV)

Video Detay


MPEG-4, 2150 Kbps, 1,76 GB

imdb puanı


5,0 / 10,0 / 12,000

süre


117 dakika

Ses Kodek: AC3


Audio Coding 3 (AC3)

Ses Detay


384 Kbps, 6 Kanal, 322 Mb

Editör Puanı


5,0

Genislik Yukseklik


1920-800

sürüm


x264 | 1080P


Film Detayları

Bir kadın, mesleğinde bulunan erkek sporcular tarafından biraz dışlanır. Kadın pek oralı değildir ancak intikam ister ve erkekleri nasıl elde edebileceğini araştırmaya başlar ve bir şeyler bulmaya başladığında, durum terse döner ve erkekler artık onun kölesi olmaya hazırdır Smile

Erkekler Ne İster? (What Men Want?) Filmi Imdb'den 12,000 kişi tarafından oylandı ve 5,0 puan aldı. Bu film için editör puanı 5,0 olarak belirlendi. İyi Seyirler!


Teknik Detaylar


Kod:
General
Complete name                            : Erkekler.Ne.Ister.2019.m1080p.BLURAY.x264.TR.Filmbol.mkv
Format                                   : Matroska
Format version                           : Version 4 / Version 2
File size                                : 2.07 GiB
Duration                                 : 1h 57mn
Overall bit rate                         : 2 535 Kbps
Movie name                               : Erkekler Ne İster? (2019) - Filmbol.org
Encoded date                             : UTC 2019-07-18 16:44:09
Writing application                      : mkvmerge v35.0.0 ('All The Love In The World') 64-bit
Writing library                          : libebml v1.3.9 + libmatroska v1.5.2

Video
ID                                       : 1
Format                                   : AVC
Format/Info                              : Advanced Video Codec
Format profile                           : High@L4.1
Format settings, CABAC                   : Yes
Format settings, ReFrames                : 4 frames
Codec ID                                 : V_MPEG4/ISO/AVC
Duration                                 : 1h 57mn
Bit rate                                 : 2 150 Kbps
Width                                    : 1 920 pixels
Height                                   : 800 pixels
Display aspect ratio                     : 2.40:1
Frame rate mode                          : Constant
Frame rate                               : 23.976 (24000/1001) fps
Color space                              : YUV
Chroma subsampling                       : 4:2:0
Bit depth                                : 8 bits
Scan type                                : Progressive
Bits/(Pixel*Frame)                       : 0.058
Stream size                              : 1.76 GiB (85%)
Title                                    : 1080P - Filmbol.org
Writing library                          : x264 core 152
Default                                  : Yes
Forced                                   : No

Audio
ID                                       : 2
Format                                   : AC-3
Format/Info                              : Audio Coding 3
Mode extension                           : CM (complete main)
Format settings, Endianness              : Big
Codec ID                                 : A_AC3
Duration                                 : 1h 57mn
Bit rate mode                            : Constant
Bit rate                                 : 384 Kbps
Channel(s)                               : 6 channels
Channel positions                        : Front: L C R, Side: L R, LFE
Sampling rate                            : 48.0 KHz
Frame rate                               : 31.250 fps (1536 spf)
Compression mode                         : Lossy
Stream size                              : 322 MiB (15%)
Title                                    : Türkçe - Filmbol.org
Language                                 : Turkish
Default                                  : Yes
Forced                                   : No

Text
ID                                       : 3
Format                                   : UTF-8
Codec ID                                 : S_TEXT/UTF8
Codec ID/Info                            : UTF-8 Plain Text
Duration                                 : 52mn 28s
Bit rate                                 : 3 bps
Count of elements                        : 20
Stream size                              : 1.34 KiB (0%)
Title                                    : KISIM
Language                                 : Turkish
Default                                  : Yes
Forced                                   : Yes


Film Detayları


Erkekler ne ister

Erkekler ne ister

Erkekler ne ister

Erkekler ne ister

Erkekler ne ister


Film Fragmanı


Film Detayları

Mini 1080P İndir


Uptobox ile indir

LetsUpload ile indir

Mega Upload ile indir


Mega linki şuan da gizli. Kullanıma açmak için konuya yorum yapın ve ardından sayfayı yenileyin. Ayrıca bu linki açtığınızda reklamsız olarak erişebileceğinizi unutmayın.

Mega


j6uG
Mediafire linki şuan da gizli. Kullanıma açmak için konuya yorum yapın ve ardından sayfayı yenileyin. Ayrıca bu linki açtığınızda reklamsız olarak erişebileceğinizi unutmayın.

Mediafire


Google Drive linki şuan da gizli. Kullanıma açmak için konuya yorum yapın ve ardından sayfayı yenileyin. Ayrıca bu linki açtığınızda reklamsız olarak erişebileceğinizi unutmayın.

Google Drive


 
Cevapla
  


Konu ile Alakalı Benzer Konular
Konular Yazar Yorumlar Okunma Son Yorum
Filmin Yayınlanma Tarihi: 2018 Çakallarla Dans 5 (2018) Yerli Film BLURAY m1080P İndir BroserBros 10 362 1 saat önce
Son Yorum: bakalım
  Yakalandın! (Tag) Türkçe Dublaj BLURAY 1080P İndir BroserBros 1 30 18-01-2020, Saat: 11:18
Son Yorum: homeros
  Çat Kapı Aşk (2019) Yerli Film BLURAY m1080P İndir BroserBros 4 245 17-01-2020, Saat: 20:38
Son Yorum: yasin2003
Filmin Yayınlanma Tarihi: 2018 Şipşak Aile (Instant Family) Türkçe Dublaj BLURAY m1080P İndir BroserBros 7 370 11-01-2020, Saat: 15:08
Son Yorum: ahkna
Filmin Yayınlanma Tarihi: 2016 Keanu Türkçe Dublaj m1080P İndir BroserBros 1 736 07-01-2020, Saat: 20:37
Son Yorum: Polatemirhan

Hızlı Menü:


Browsing: 1 Ziyaretçi