Filmbol Forum Film İndir 720P v Enzo Yağmurda Yarış Sanatı (Art of Racing in the Rain) Türkçe Dublaj m720P İndir
Filmbol'da moderatör olmak ister misiniz? Bizimle iletişime geçmek için tıklayın!
Enzo Yağmurda Yarış Sanatı (Art of Racing in the Rain) Türkçe Dublaj m720P İndir
BroserBros
Enzo Yağmurda Yarış Sanatı (Art of Racing in the Rain) Türkçe Dublaj m720P İndir
3
373
  • Derecelendirme: 0/5 - 0 oy
  • 1
  • 2
  • 3
  • 4
  • 5
Konuyu Okuyanlar:1 Ziyaretçi
Şuan Online!
Filmin Yayınlanma Tarihi: 2019 
Şuan Online!
BroserBros Kurucu Admin
*******
Admin

indirme türü


Bulut + Premium

Vizyon Tarihi


09 Ağustos 2019

Boyutlar


1,13

diller


[TR]

altyazilar


KISIM [Eklenebilir]

Video Format: Mkv


Matroska (.MKV)

Video Detay


MPEG-4, 1598Kbps, 1,21GB

imdb puanı


7,4 / 10,0 / 6,000

süre


109 dakika

Ses Kodek: AC3


Audio Coding 3 (AC3)

Ses Detay


384 Kbps, 6 Kanal, 299Mb

Editör Puanı


6,0

Genislik Yukseklik


1280-694

sürüm


x264 | 720P




Enzo Yagmurda Yaris Sanati


Film Detayları

Garth Stein'in yayımlanır yayımlanmaz en çok satanlar listesine giren ve tam 23 dile çevrilen kitabı The Art of Racing in the Rain'den uyarlanan film, Enzo isimli yaşlı bir golden cinsi köpeğin gözünden, insan hayatına şefkatli bir bakış atıyor. Enzo tüm hayatını, çevresinde akıp giden dünyayı gözlemleyerek ve bir araba yarışçısı olan sahibi Denny, onun beyin tümörü savaşı veren eşi Eve ve kızları Zoe'den oluşan ailesinden aldığı hayat derslerini uygulayarak geçirmektedir.

Enzo: Yağmurda Yarış Sanatı (The Art of Racing in the Rain) Filmi Imdb'den 6,000 kişi tarafından oylandı ve 7,4 puan aldı. Bu film için editör puanı 6,0 olarak belirlendi. İyi Seyirler!


Teknik Detaylar


Kod :
General
Complete name                            : Enzo.Yağmurda.Yarış.Sanatı.2019.m720p.BLURAY.x264.TR.Filmbol.mkv
Format                                   : Matroska
Format version                           : Version 4 / Version 2
File size                                : 1.13 GiB
Duration                                 : 1h 48mn
Overall bit rate                         : 1 485 Kbps
Movie name                               : Enzo; Yağmurda Savaş Sanatı (2019) - Filmbol.org
Encoded date                             : UTC 2019-11-01 00:07:25
Writing application                      : mkvmerge v35.0.0 ('All The Love In The World') 64-bit
Writing library                          : libebml v1.3.9 + libmatroska v1.5.2

Video
ID                                       : 1
Format                                   : AVC
Format/Info                              : Advanced Video Codec
Format profile                           : High@L4.1
Format settings, CABAC                   : Yes
Format settings, ReFrames                : 4 frames
Codec ID                                 : V_MPEG4/ISO/AVC
Duration                                 : 1h 48mn
Bit rate                                 : 1 100 Kbps
Width                                    : 1 280 pixels
Height                                   : 694 pixels
Display aspect ratio                     : 1.85:1
Frame rate mode                          : Constant
Frame rate                               : 23.976 (24000/1001) fps
Color space                              : YUV
Chroma subsampling                       : 4:2:0
Bit depth                                : 8 bits
Scan type                                : Progressive
Bits/(Pixel*Frame)                       : 0.052
Stream size                              : 856 MiB (74%)
Title                                    : 1080P - Filmbol.org
Writing library                          : x264 core 158
Default                                  : Yes
Forced                                   : No

Audio
ID                                       : 2
Format                                   : AC-3
Format/Info                              : Audio Coding 3
Mode extension                           : CM (complete main)
Format settings, Endianness              : Big
Codec ID                                 : A_AC3
Duration                                 : 1h 48mn
Bit rate mode                            : Constant
Bit rate                                 : 384 Kbps
Channel(s)                               : 6 channels
Channel positions                        : Front: L C R, Side: L R, LFE
Sampling rate                            : 48.0 KHz
Frame rate                               : 31.250 fps (1536 spf)
Compression mode                         : Lossy
Stream size                              : 299 MiB (26%)
Title                                    : Türkçe - Filmbol.org
Language                                 : Turkish
Default                                  : Yes
Forced                                   : No

Text
ID                                       : 3
Format                                   : UTF-8
Codec ID                                 : S_TEXT/UTF8
Codec ID/Info                            : UTF-8 Plain Text
Duration                                 : 1h 44mn
Bit rate                                 : 0 bps
Count of elements                        : 6
Stream size                              : 166 Bytes (0%)
Title                                    : KISIM
Language                                 : Turkish
Default                                  : Yes
Forced                                   : Yes

Film Detayları


Enzo Yagmurda Yaris Sanati

Enzo Yagmurda Yaris Sanati

Enzo Yagmurda Yaris Sanati



Film Fragmanı


Film Detayları

Mini 720P İndir


Uptobox ile indir

LetsUpload ile indir

b108

Mega ile indir

MediaFire ile indir

Şuan Offine!
Şuan Offine!
emreakbdk Uzman Üye
**
Uzman Üye

  • Konular0
  • Mesajlar14
  • Rep puanı 0
bakalım
Şuan Offine!
Şuan Offine!
hongada Yeni Üye
*
Üye

  • Konular0
  • Mesajlar3
  • Rep puanı 0
Ellerine sağlık
Şuan Offine!
Şuan Offine!
gonenoya Süper Üye
***
Super Üye

  • Konular0
  • Mesajlar42
  • Rep puanı 0
dxdiag


Konu ile Alakalı Benzer Konular
Konular Yazar Yorumlar Okunma Son Yorum
Filmin Yayınlanma Tarihi: 2004
Harry Potter ve Azbakan Tutsağı (Prisoner of Azkaban) Türkçe Dublaj m720P İndir BroserBros 16 1,589 17-08-2020, Saat: 22:52
Son Yorum: xzxxx
Filmin Yayınlanma Tarihi: 2016
Lanetli Mesaj (Friend Request) Türkçe Dublaj m720P İndir BroserBros 2 1,555 29-07-2020, Saat: 14:11
Son Yorum: gurcan.d
Filmin Yayınlanma Tarihi: 2019
Savunma Sanatı (The Art of Self-Defense) - 2019 - TR+ORG - 720P BroserBros 0 133 26-07-2020, Saat: 12:35
Son Yorum: BroserBros
Filmin Yayınlanma Tarihi: 2019
Shazam! 6 Güç Türkçe Dublaj Bluray m720P İndir BroserBros 3 814 18-05-2020, Saat: 19:03
Son Yorum: problemboy1
Filmin Yayınlanma Tarihi: 2019
The Silence (2019) Türkçe Dublaj BLURAY m720P İndir BroserBros 5 707 12-05-2020, Saat: 21:37
Son Yorum: Nizyy

Hızlı Menü: