Hoşgeldin, Ziyaretçi: Giriş Yap Üye Ol


stats
Adblock'u kapattıysanız tıklayın.
Hoşgeldiniz!
Filmbol'u tercih ettiğiniz için teşekkürler, ancak ablock kullanarak devam edemezsiniz.
Merak etmeyin. Heryerden ardı ardına çıkan reklamlar görmeyeceksiniz :)

Sadece site içi 1 reklam göreceksin ve bu site gezintini etkilemeyecek.
Konuyu Oyla:
  • Derecelendirme: 0/5 - 0 oy
  • 1
  • 2
  • 3
  • 4
  • 5
Title: Enzo Yağmurda Yarış Sanatı (Art of Racing in the Rain) Türkçe Dublaj m1080P İndir
Gösterim Stili
#1
Filmin Yayınlanma Tarihi: 2019 

indirme türü


Bulut + Premium

vizyon tarihi


09 Ağustos 2019

Boyutlar


1,89

diller


[TR]

altyazilar


KISIM [Eklenebilir]

Video Format: Mkv


Matroska (.MKV)

Video Detay


MPEG-4, 2100Kbps, 1,60GB

imdb puanı


7,4 / 10,0 / 6,000

süre


109 dakika

Ses Kodek: AC3


Audio Coding 3 (AC3)

Ses Detay


384 Kbps, 6 Kanal, 299Mb

Editör Puanı


6,0

Genislik Yukseklik


1920-1040

sürüm


x264 | m1080P





Enzo Yagmurda Yaris Sanati


Film Detayları

Garth Stein'in yayımlanır yayımlanmaz en çok satanlar listesine giren ve tam 23 dile çevrilen kitabı The Art of Racing in the Rain'den uyarlanan film, Enzo isimli yaşlı bir golden cinsi köpeğin gözünden, insan hayatına şefkatli bir bakış atıyor. Enzo tüm hayatını, çevresinde akıp giden dünyayı gözlemleyerek ve bir araba yarışçısı olan sahibi Denny, onun beyin tümörü savaşı veren eşi Eve ve kızları Zoe'den oluşan ailesinden aldığı hayat derslerini uygulayarak geçirmektedir.

Enzo: Yağmurda Yarış Sanatı (The Art of Racing in the Rain) Filmi Imdb'den 6,000 kişi tarafından oylandı ve 7,4 puan aldı. Bu film için editör puanı 6,0 olarak belirlendi. İyi Seyirler!


Teknik Detaylar


Kod:
General
Complete name                            : Enzo.Yağmurda.Yarış.Sanatı.2019.m1080p.BLURAY.x264.TR.Filmbol.mkv
Format                                   : Matroska
Format version                           : Version 4 / Version 2
File size                                : 1.89 GiB
Duration                                 : 1h 48mn
Overall bit rate                         : 2 485 Kbps
Movie name                               : Enzo: Yağmurda Yarış Sanatı (2019) - Filmbol.org
Encoded date                             : UTC 2019-11-01 00:09:38
Writing application                      : mkvmerge v35.0.0 ('All The Love In The World') 64-bit
Writing library                          : libebml v1.3.9 + libmatroska v1.5.2

Video
ID                                       : 1
Format                                   : AVC
Format/Info                              : Advanced Video Codec
Format profile                           : High@L4.1
Format settings, CABAC                   : Yes
Format settings, ReFrames                : 4 frames
Codec ID                                 : V_MPEG4/ISO/AVC
Duration                                 : 1h 48mn
Bit rate                                 : 2 100 Kbps
Width                                    : 1 920 pixels
Height                                   : 1 040 pixels
Display aspect ratio                     : 1.85:1
Frame rate mode                          : Constant
Frame rate                               : 23.976 (24000/1001) fps
Color space                              : YUV
Chroma subsampling                       : 4:2:0
Bit depth                                : 8 bits
Scan type                                : Progressive
Bits/(Pixel*Frame)                       : 0.044
Stream size                              : 1.60 GiB (84%)
Title                                    : m1080P - Filmbol.org
Writing library                          : x264 core 158
Default                                  : Yes
Forced                                   : No

Audio
ID                                       : 2
Format                                   : AC-3
Format/Info                              : Audio Coding 3
Mode extension                           : CM (complete main)
Format settings, Endianness              : Big
Codec ID                                 : A_AC3
Duration                                 : 1h 48mn
Bit rate mode                            : Constant
Bit rate                                 : 384 Kbps
Channel(s)                               : 6 channels
Channel positions                        : Front: L C R, Side: L R, LFE
Sampling rate                            : 48.0 KHz
Frame rate                               : 31.250 fps (1536 spf)
Compression mode                         : Lossy
Stream size                              : 299 MiB (15%)
Title                                    : Türkçe - Filmbol.org
Language                                 : Turkish
Default                                  : Yes
Forced                                   : No

Text
ID                                       : 3
Format                                   : UTF-8
Codec ID                                 : S_TEXT/UTF8
Codec ID/Info                            : UTF-8 Plain Text
Duration                                 : 1h 44mn
Bit rate                                 : 0 bps
Count of elements                        : 6
Stream size                              : 166 Bytes (0%)
Title                                    : KISIM
Language                                 : Turkish
Default                                  : Yes
Forced                                   : Yes

Film Detayları


Enzo Yagmurda Yaris Sanati

Enzo Yagmurda Yaris Sanati

Enzo Yagmurda Yaris Sanati



Film Fragmanı


Film Detayları

Mini 1080P İndir


Uptobox ile indir

LetsUpload ile indir

Dosya Upload ile indir

Mega linki şuan da gizli. Kullanıma açmak için konuya yorum yapın ve ardından sayfayı yenileyin. Ayrıca bu linki açtığınızda reklamsız olarak erişebileceğinizi unutmayın.

Mega


Mediafire linki şuan da gizli. Kullanıma açmak için konuya yorum yapın ve ardından sayfayı yenileyin. Ayrıca bu linki açtığınızda reklamsız olarak erişebileceğinizi unutmayın.

Mediafire


Google Drive linki şuan da gizli. Kullanıma açmak için konuya yorum yapın ve ardından sayfayı yenileyin. Ayrıca bu linki açtığınızda reklamsız olarak erişebileceğinizi unutmayın.

Google Drive

 
Cevapla
#2
süper
 
Cevapla
#3
thanks
 
Cevapla
#4
süper teşkkürler
 
Cevapla
#5
Smile Wink Smile Wink Smile
 
Cevapla
  


Hızlı Menü:


Browsing: 2 Ziyaretçi