Hoşgeldin, Ziyaretçi: Giriş Yap Üye Ol


stats
Adblock'u kapattıysanız tıklayın.
Hoşgeldiniz!
Filmbol'u tercih ettiğiniz için teşekkürler, ancak ablock kullanarak devam edemezsiniz.
Merak etmeyin. Heryerden ardı ardına çıkan reklamlar görmeyeceksiniz :)

Sadece site içi 1 reklam göreceksin ve bu site gezintini etkilemeyecek.
Konuyu Oyla:
  • Derecelendirme: 0/5 - 0 oy
  • 1
  • 2
  • 3
  • 4
  • 5
Entebbe'de 7 Gün (Entebbe) Türkçe Dublaj Brrip Xvid İndir
#1
Filmin Yayınlanma Tarihi: 2018 

indirme türü


Bulut + Premium

vizyon tarihi


16 Mart 2018

Boyutlar


1,04

diller


[TR]

altyazilar


Yok [Eklenebilir]

Video Format: Avi


Audio Video Interleave (.AVI)

Video Detay


MPEG-4, 1254 Kbps, 0,96GB

imdb puanı


5,8 / 10,0 / 11,000

süre


107 dakika

Ses Kodek: MP3


MPEG-1 Audio Layer III (MP3)

Ses Detay


128 Kbps, 2 Kanal, 98Mb

Editör Puanı


5,5

Genislik Yukseklik


720-304

sürüm


h263 | Brrip Xvid





Entebbe de yedi gun


Film Detayları

Gerçek bir olaydan esinlenilen filmde, 1976 yılında içerisinde 248 yolcunun bulunduğu, Tel Aviv'ten Paris'e giden bir uçak 4 korsan tarafından kaçırılır. İkisi Filistinli ikisi ise Alman olan korsanlar tarafından ele geçirilen uçak, Uganda'daki Entebbe Havaalanı'na indirilir, Korsanların amacı İsrail, Kenya, Fransa, İsviçre ve Batı Almanya’da tutuklu bulunan 53 Filistinli'nin serbest bırakılmasını sağlamaktır. Gözler İsrail hükümetine çevrilmiştir. Herkes diplomatik bir çözüm yapılmasını beklerken İsrail hükümeti rehin alınan 248 kişinin hayatını kurtarmak için olağanüstü bir plan yapar.

Entebbe'de 7 Gün (Entebbe) Filmi Imdb'den 11,000 kişi tarafından oylandı ve 5,8 puan aldı. Bu film için editör puanı 5,5 olarak belirlendi. İyi Seyirler!


Teknik Detaylar



Kod:
General
Complete name                            : Entebbe'de.7.Gün.2018.BRRip.XViD.TR.Filmbol.avi
Format                                   : AVI
Format/Info                              : Audio Video Interleave
File size                                : 1.04 GiB
Duration                                 : 1h 47mn
Overall bit rate                         : 1 396 Kbps

Video
ID                                       : 0
Format                                   : MPEG-4 Visual
Format profile                           : Advanced Simple@L5
Format settings, BVOP                    : 2
Format settings, QPel                    : No
Format settings, GMC                     : No warppoints
Format settings, Matrix                  : Default (MPEG)
Codec ID                                 : XVID
Codec ID/Hint                            : XviD
Duration                                 : 1h 47mn
Bit rate                                 : 1 254 Kbps
Width                                    : 720 pixels
Height                                   : 304 pixels
Display aspect ratio                     : 2.35:1
Frame rate                               : 23.976 (23976/1000) fps
Color space                              : YUV
Chroma subsampling                       : 4:2:0
Bit depth                                : 8 bits
Scan type                                : Progressive
Compression mode                         : Lossy
Bits/(Pixel*Frame)                       : 0.239
Stream size                              : 960 MiB (90%)
Writing library                          : XviD 64

Audio
ID                                       : 1
Format                                   : MPEG Audio
Format version                           : Version 1
Format profile                           : Layer 3
Mode                                     : Joint stereo
Mode extension                           : MS Stereo
Codec ID                                 : 55
Codec ID/Hint                            : MP3
Duration                                 : 1h 47mn
Bit rate mode                            : Constant
Bit rate                                 : 128 Kbps
Channel(s)                               : 2 channels
Sampling rate                            : 48.0 KHz
Compression mode                         : Lossy
Stream size                              : 98.0 MiB (9%)
Alignment                                : Aligned on interleaves
Interleave, duration                     : 24 ms (0.58 video frame)


Film Detayları


Entebbe

Entebbe

Entebbe


Film Fragmanı


Film Detayları

Brrip İndir


MixDrop ile indir

Tusfiles ile indir

LetsUpload ile indir

Filmbol'da aşağıdaki linkler sadece üyelere sunulur. Ayrıca bu linklerde link kısaltma servisleri kullanılmaz, linke tek tık ile reklamsız erişirsiniz. Konu'ya yorum yapın ve sayfayı yenileyin. Reklamsız linkler (en az 3 en fazla 5 link) açılmış olacaktır. Not: Filmbol'a üye olmak tamamen ücretsizdir, en az 3 link kuralı 01.07.2019 tarihinden sonraki paylaşımlar için geçerlidir. Ancak çoğu film için en az bir premium link her zaman bulunur.

Mega

Dosyaco

Dosyaupload

Mediafire

Google Drive
 
Cevapla
#2
TSKLER
 
Cevapla
  


Konu ile Alakalı Benzer Konular
Konular Yazar Yorumlar Okunma Son Yorum
Filmin Yayınlanma Tarihi: 2017 John Wick 2 (Chapter 2) Türkçe Dublaj Brrip Xvid İndir BroserBros 1 69 , Saat: 00:11
Son Yorum: ufukus
Filmin Yayınlanma Tarihi: 2018 Deadpool 2 Türkçe Dublaj Brrip-Xvid İndir BroserBros 7 1,831 14-09-2019, Saat: 23:00
Son Yorum: edizshady
Filmin Yayınlanma Tarihi: 2018 Şiddet Eylemleri (Acts of Violence) Türkçe Dublaj Brrip Xvid İndir BroserBros 0 29 02-09-2019, Saat: 22:18
Son Yorum: BroserBros
Filmin Yayınlanma Tarihi: 2018 Adaletsiz - Dragged Across Concrete (2018) - Türkçe Dublaj BRRip XviD İndir NtDTr 0 155 08-08-2019, Saat: 18:52
Son Yorum: NtDTr
Filmin Yayınlanma Tarihi: 2018 Overlord Operasyonu (2018) Türkçe Dublaj Brrip Xvid İndir BroserBros 0 99 07-08-2019, Saat: 21:40
Son Yorum: BroserBros

Hızlı Menü:


Şu anda bu konuyu okuyanlar: 1 Ziyaretçi