Filmbol Forum Film İndir BRRip XviD v Entebbe'de 7 Gün (Entebbe) Türkçe Dublaj Brrip Xvid İndir
Entebbe'de 7 Gün (Entebbe) Türkçe Dublaj Brrip Xvid İndir
BroserBros
Entebbe'de 7 Gün (Entebbe) Türkçe Dublaj Brrip Xvid İndir
2
316
  • Derecelendirme: 0/5 - 0 oy
  • 1
  • 2
  • 3
  • 4
  • 5
Konuyu Okuyanlar:1 Ziyaretçi
Şuan Online!
Filmin Yayınlanma Tarihi: 2018 
Şuan Online!
BroserBros Kurucu Admin
*******
Admin

indirme türü


Bulut + Premium

Vizyon Tarihi


16 Mart 2018

Boyutlar


1,04

diller


[TR]

altyazilar


Yok [Eklenebilir]

Video Format: Avi


Audio Video Interleave (.AVI)

Video Detay


MPEG-4, 1254 Kbps, 0,96GB

imdb puanı


5,8 / 10,0 / 11,000

süre


107 dakika

Ses Kodek: MP3


MPEG-1 Audio Layer III (MP3)

Ses Detay


128 Kbps, 2 Kanal, 98Mb

Editör Puanı


5,5

Genislik Yukseklik


720-304

sürüm


h263 | Brrip Xvid




Entebbe de yedi gun


Film Detayları

Gerçek bir olaydan esinlenilen filmde, 1976 yılında içerisinde 248 yolcunun bulunduğu, Tel Aviv'ten Paris'e giden bir uçak 4 korsan tarafından kaçırılır. İkisi Filistinli ikisi ise Alman olan korsanlar tarafından ele geçirilen uçak, Uganda'daki Entebbe Havaalanı'na indirilir, Korsanların amacı İsrail, Kenya, Fransa, İsviçre ve Batı Almanya’da tutuklu bulunan 53 Filistinli'nin serbest bırakılmasını sağlamaktır. Gözler İsrail hükümetine çevrilmiştir. Herkes diplomatik bir çözüm yapılmasını beklerken İsrail hükümeti rehin alınan 248 kişinin hayatını kurtarmak için olağanüstü bir plan yapar.

Entebbe'de 7 Gün (Entebbe) Filmi Imdb'den 11,000 kişi tarafından oylandı ve 5,8 puan aldı. Bu film için editör puanı 5,5 olarak belirlendi. İyi Seyirler!


Teknik Detaylar


Kod :
General
Complete name                            : Entebbe'de.7.Gün.2018.BRRip.XViD.TR.Filmbol.avi
Format                                   : AVI
Format/Info                              : Audio Video Interleave
File size                                : 1.04 GiB
Duration                                 : 1h 47mn
Overall bit rate                         : 1 396 Kbps

Video
ID                                       : 0
Format                                   : MPEG-4 Visual
Format profile                           : Advanced Simple@L5
Format settings, BVOP                    : 2
Format settings, QPel                    : No
Format settings, GMC                     : No warppoints
Format settings, Matrix                  : Default (MPEG)
Codec ID                                 : XVID
Codec ID/Hint                            : XviD
Duration                                 : 1h 47mn
Bit rate                                 : 1 254 Kbps
Width                                    : 720 pixels
Height                                   : 304 pixels
Display aspect ratio                     : 2.35:1
Frame rate                               : 23.976 (23976/1000) fps
Color space                              : YUV
Chroma subsampling                       : 4:2:0
Bit depth                                : 8 bits
Scan type                                : Progressive
Compression mode                         : Lossy
Bits/(Pixel*Frame)                       : 0.239
Stream size                              : 960 MiB (90%)
Writing library                          : XviD 64

Audio
ID                                       : 1
Format                                   : MPEG Audio
Format version                           : Version 1
Format profile                           : Layer 3
Mode                                     : Joint stereo
Mode extension                           : MS Stereo
Codec ID                                 : 55
Codec ID/Hint                            : MP3
Duration                                 : 1h 47mn
Bit rate mode                            : Constant
Bit rate                                 : 128 Kbps
Channel(s)                               : 2 channels
Sampling rate                            : 48.0 KHz
Compression mode                         : Lossy
Stream size                              : 98.0 MiB (9%)
Alignment                                : Aligned on interleaves
Interleave, duration                     : 24 ms (0.58 video frame)


Film Detayları


Entebbe

Entebbe

Entebbe


Film Fragmanı


Film Detayları

Brrip İndir


LetsUpload ile indir


Mega ile indir

rA90
Şuan Offine!
Şuan Offine!
mert06 Yeni Üye
*
Üye

  • Konular0
  • Mesajlar2
  • Rep puanı 0
TSKLER
Şuan Offine!
Şuan Offine!
forget Uzman Üye
**
Uzman Üye

  • Konular0
  • Mesajlar7
  • Rep puanı 0
elinize sağlık


Konu ile Alakalı Benzer Konular
Konular Yazar Yorumlar Okunma Son Yorum
Filmin Yayınlanma Tarihi: 2018
Greta (Greta) - 2018 - TR - BRRip XviD BroserBros 0 16 , Saat: 16:01
Son Yorum: BroserBros
Filmin Yayınlanma Tarihi: 2020
Yırtıcı Kuşlar (Birds of Prey) - 2020 - TR - BRRip XviD BroserBros 0 14 , Saat: 15:03
Son Yorum: BroserBros
Filmin Yayınlanma Tarihi: 2020
Küçük Kadınlar (Little Women) - 2019 - TR - BRRip XviD BroserBros 0 11 , Saat: 13:52
Son Yorum: BroserBros
Filmin Yayınlanma Tarihi: 2020
Babamın Mutfağı (Uncorked) Türkçe Dublaj BRRip XviD indir BroserBros 1 52 02-04-2020, Saat: 20:21
Son Yorum: farukyigit
Filmin Yayınlanma Tarihi: 2020
Tavşan Jojo (Jojo Rabbit) Türkçe Dublaj BRRip XviD indir BroserBros 1 48 02-04-2020, Saat: 20:14
Son Yorum: farukyigit

Hızlı Menü: