Filmbol Forum Film İndir 720P v Entebbe'de 7 Gün (Entebbe) Türkçe Dublaj BLURAY m720P İndir
Filmbol'da moderatör olmak ister misiniz? Bizimle iletişime geçmek için tıklayın!
Entebbe'de 7 Gün (Entebbe) Türkçe Dublaj BLURAY m720P İndir
BroserBros
Entebbe'de 7 Gün (Entebbe) Türkçe Dublaj BLURAY m720P İndir
1
406
  • Derecelendirme: 0/5 - 0 oy
  • 1
  • 2
  • 3
  • 4
  • 5
Konuyu Okuyanlar:1 Ziyaretçi
Şuan Online!
Filmin Yayınlanma Tarihi: 2018 
Şuan Online!
BroserBros Kurucu Admin
*******
Admin

indirme türü


Bulut + Premium

Vizyon Tarihi


16 Mart 2018

Boyutlar


0,94

diller


[TR]

altyazilar


Yok [Eklenebilir]

Video Format: Mkv


Matroska (.MKV)

Video Detay


MPEG-4, 1050 Kbps, 0,80GB

imdb puanı


5,8 / 10,0 / 11,000

süre


107 dakika

Ses Kodek: AC3


Audio Coding 3 (AC3)

Ses Detay


192 Kbps, 2 Kanal, 147Mb

Editör Puanı


5,5

Genislik Yukseklik


1280-534

sürüm


x264 | 720P




Entebbe de yedi gun


Film Detayları

Gerçek bir olaydan esinlenilen filmde, 1976 yılında içerisinde 248 yolcunun bulunduğu, Tel Aviv'ten Paris'e giden bir uçak 4 korsan tarafından kaçırılır. İkisi Filistinli ikisi ise Alman olan korsanlar tarafından ele geçirilen uçak, Uganda'daki Entebbe Havaalanı'na indirilir, Korsanların amacı İsrail, Kenya, Fransa, İsviçre ve Batı Almanya’da tutuklu bulunan 53 Filistinli'nin serbest bırakılmasını sağlamaktır. Gözler İsrail hükümetine çevrilmiştir. Herkes diplomatik bir çözüm yapılmasını beklerken İsrail hükümeti rehin alınan 248 kişinin hayatını kurtarmak için olağanüstü bir plan yapar.

Entebbe'de 7 Gün (Entebbe) Filmi Imdb'den 11,000 kişi tarafından oylandı ve 5,8 puan aldı. Bu film için editör puanı 5,5 olarak belirlendi. İyi Seyirler!


Teknik Detaylar


Kod :
General
Complete name                            : Entebbe'de.7.Gün.2018.m720p.BLURAY.x264.TR.Filmbol.mkv
Format                                   : Matroska
Format version                           : Version 4 / Version 2
File size                                : 952 MiB
Duration                                 : 1h 47mn
Overall bit rate                         : 1 243 Kbps
Movie name                               : Entebbe'de Yedi Gün - Filmbol.org
Encoded date                             : UTC 2019-08-15 15:47:22
Writing application                      : mkvmerge v35.0.0 ('All The Love In The World') 64-bit
Writing library                          : libebml v1.3.9 + libmatroska v1.5.2

Video
ID                                       : 1
Format                                   : AVC
Format/Info                              : Advanced Video Codec
Format profile                           : High@L4.1
Format settings, CABAC                   : Yes
Format settings, ReFrames                : 4 frames
Codec ID                                 : V_MPEG4/ISO/AVC
Duration                                 : 1h 47mn
Bit rate                                 : 1 050 Kbps
Width                                    : 1 280 pixels
Height                                   : 534 pixels
Display aspect ratio                     : 2.40:1
Original display aspect ratio            : 2.40:1
Frame rate mode                          : Constant
Frame rate                               : 23.976 (24000/1001) fps
Color space                              : YUV
Chroma subsampling                       : 4:2:0
Bit depth                                : 8 bits
Scan type                                : Progressive
Bits/(Pixel*Frame)                       : 0.064
Stream size                              : 803 MiB (84%)
Title                                    : 720P - Filmbol.org
Writing library                          : x264 core 152
Default                                  : Yes
Forced                                   : No

Audio
ID                                       : 2
Format                                   : AC-3
Format/Info                              : Audio Coding 3
Mode extension                           : CM (complete main)
Format settings, Endianness              : Big
Codec ID                                 : A_AC3
Duration                                 : 1h 47mn
Bit rate mode                            : Constant
Bit rate                                 : 192 Kbps
Channel(s)                               : 2 channels
Channel positions                        : Front: L R
Sampling rate                            : 48.0 KHz
Frame rate                               : 31.250 fps (1536 spf)
Compression mode                         : Lossy
Stream size                              : 147 MiB (15%)
Title                                    : Türkçe - Filmbol.org
Language                                 : Turkish
Default                                  : Yes
Forced                                   : No


Film Detayları


Entebbe

Entebbe

Entebbe


Film Fragmanı


Film Detayları

Mini 720P İndir


LetsUpload ile indir


Mega ile indir

no00
Şuan Offine!
Şuan Offine!
toonami Yeni Üye
*
Üye

  • Konular0
  • Mesajlar2
  • Rep puanı 0
film için teşekkürler


Konu ile Alakalı Benzer Konular
Konular Yazar Yorumlar Okunma Son Yorum
Filmin Yayınlanma Tarihi: 2004
Harry Potter ve Azbakan Tutsağı (Prisoner of Azkaban) Türkçe Dublaj m720P İndir BroserBros 16 1,591 17-08-2020, Saat: 22:52
Son Yorum: xzxxx
Filmin Yayınlanma Tarihi: 2016
Lanetli Mesaj (Friend Request) Türkçe Dublaj m720P İndir BroserBros 2 1,555 29-07-2020, Saat: 14:11
Son Yorum: gurcan.d
Filmin Yayınlanma Tarihi: 2019
Shazam! 6 Güç Türkçe Dublaj Bluray m720P İndir BroserBros 3 815 18-05-2020, Saat: 19:03
Son Yorum: problemboy1
Filmin Yayınlanma Tarihi: 2019
The Silence (2019) Türkçe Dublaj BLURAY m720P İndir BroserBros 5 711 12-05-2020, Saat: 21:37
Son Yorum: Nizyy
Filmin Yayınlanma Tarihi: 2019
Godzilla 2: Canavarlar Kralı (King of the Monsters) Türkçe Dublaj BLURAY m720P İndir BroserBros 12 1,308 03-05-2020, Saat: 17:05
Son Yorum: jisiso5307

Hızlı Menü: