Hoşgeldin, Ziyaretçi: Giriş Yap Üye Ol


Konuyu Oyla:
  • Derecelendirme: 0/5 - 0 oy
  • 1
  • 2
  • 3
  • 4
  • 5
Title: Entebbe'de 7 Gün (Entebbe) Türkçe Dublaj BLURAY m1080P İndir
Gösterim Stili
#1
Filmin Yayınlanma Tarihi: 2018 

indirme türü


Bulut + Premium

vizyon tarihi


16 Mart 2018

Boyutlar


1,75

diller


[TR]

altyazilar


Yok [Eklenebilir]

Video Format: Mkv


Matroska (.MKV)

Video Detay


MPEG-4, 2150 Kbps, 1,61GB

imdb puanı


5,8 / 10,0 / 11,000

süre


107 dakika

Ses Kodek: AC3


Audio Coding 3 (AC3)

Ses Detay


192 Kbps, 2 Kanal, 147Mb

Editör Puanı


5,5

Genislik Yukseklik


1920-800

sürüm


x264 | 1080P




Entebbe de yedi gun


Film Detayları

Gerçek bir olaydan esinlenilen filmde, 1976 yılında içerisinde 248 yolcunun bulunduğu, Tel Aviv'ten Paris'e giden bir uçak 4 korsan tarafından kaçırılır. İkisi Filistinli ikisi ise Alman olan korsanlar tarafından ele geçirilen uçak, Uganda'daki Entebbe Havaalanı'na indirilir, Korsanların amacı İsrail, Kenya, Fransa, İsviçre ve Batı Almanya’da tutuklu bulunan 53 Filistinli'nin serbest bırakılmasını sağlamaktır. Gözler İsrail hükümetine çevrilmiştir. Herkes diplomatik bir çözüm yapılmasını beklerken İsrail hükümeti rehin alınan 248 kişinin hayatını kurtarmak için olağanüstü bir plan yapar.

Entebbe'de 7 Gün (Entebbe) Filmi Imdb'den 11,000 kişi tarafından oylandı ve 5,8 puan aldı. Bu film için editör puanı 5,5 olarak belirlendi. İyi Seyirler!


Teknik Detaylar


Kod:
General
Complete name                            : Entebbe'de.7.Gün.2018.m1080p.BLURAY.x264.TR.Filmbol.mkv
Format                                   : Matroska
Format version                           : Version 4 / Version 2
File size                                : 1.75 GiB
Duration                                 : 1h 47mn
Overall bit rate                         : 2 345 Kbps
Movie name                               : Entebbe'de Yedi Gün - Filmbol.org
Encoded date                             : UTC 2019-08-15 15:30:44
Writing application                      : mkvmerge v35.0.0 ('All The Love In The World') 64-bit
Writing library                          : libebml v1.3.9 + libmatroska v1.5.2

Video
ID                                       : 1
Format                                   : AVC
Format/Info                              : Advanced Video Codec
Format profile                           : High@L4.1
Format settings, CABAC                   : Yes
Format settings, ReFrames                : 4 frames
Codec ID                                 : V_MPEG4/ISO/AVC
Duration                                 : 1h 47mn
Bit rate                                 : 2 150 Kbps
Width                                    : 1 920 pixels
Height                                   : 800 pixels
Display aspect ratio                     : 2.40:1
Frame rate mode                          : Constant
Frame rate                               : 23.976 (24000/1001) fps
Color space                              : YUV
Chroma subsampling                       : 4:2:0
Bit depth                                : 8 bits
Scan type                                : Progressive
Bits/(Pixel*Frame)                       : 0.058
Stream size                              : 1.61 GiB (92%)
Title                                    : 1080P - Filmbol.org
Writing library                          : x264 core 152
Default                                  : Yes
Forced                                   : No

Audio
ID                                       : 2
Format                                   : AC-3
Format/Info                              : Audio Coding 3
Mode extension                           : CM (complete main)
Format settings, Endianness              : Big
Codec ID                                 : A_AC3
Duration                                 : 1h 47mn
Bit rate mode                            : Constant
Bit rate                                 : 192 Kbps
Channel(s)                               : 2 channels
Channel positions                        : Front: L R
Sampling rate                            : 48.0 KHz
Frame rate                               : 31.250 fps (1536 spf)
Compression mode                         : Lossy
Stream size                              : 147 MiB (8%)
Title                                    : Türkçe - Filmbol.org
Language                                 : Turkish
Default                                  : Yes
Forced                                   : No


Film Detayları


Entebbe

Entebbe

Entebbe


Film Fragmanı


Film Detayları

Mini 720P İndir


LetsUpload ile indir


Mega ile indir

no02

MediaFire ile indir

Google Drive linki şuan da gizli. Kullanıma açmak için konuya yorum yapın ve ardından sayfayı yenileyin. Ayrıca bu linki açtığınızda reklamsız olarak erişebileceğinizi unutmayın.

Google Drive


 
Cevapla
#2
süper
 
Cevapla
#3
teşekkürler.
 
Cevapla
  


Konu ile Alakalı Benzer Konular
Konular Yazar Yorumlar Okunma Son Yorum
Filmin Yayınlanma Tarihi: 2019 Paradise Beach (2019) Türkçe Dublaj BLURAY m1080P İndir BroserBros 1 234 21-03-2020, Saat: 18:14
Son Yorum: mehmetdonmez2
Filmin Yayınlanma Tarihi: 2018 Mission: Impossible - Yansımalar (Fallout) Türkçe Dublaj m1080P İndir DRMOV 11 771 20-03-2020, Saat: 01:30
Son Yorum: emirhzn
Filmin Yayınlanma Tarihi: 2019 Hızlı ve Öfkeli: Hobbs ve Shaw (Fast & Furious) Türkçe Dublaj BLURAY m1080P İndir BroserBros 32 1,569 14-03-2020, Saat: 22:46
Son Yorum: bylaki
Filmin Yayınlanma Tarihi: 2016 Suicide Squad: Gerçek Kötüler Türkçe Dublaj m1080P İndir BroserBros 7 4,604 05-02-2020, Saat: 01:22
Son Yorum: aguero4245
Filmin Yayınlanma Tarihi: 2018 Deadpool 2 Türkçe Dublaj m1080P İndir BroserBros 57 7,022 02-02-2020, Saat: 13:51
Son Yorum: tunit55

Hızlı Menü:


Browsing: 1 Ziyaretçi