Hoşgeldin, Ziyaretçi: Giriş Yap Üye Ol


stats
Adblock'u kapattıysanız tıklayın.
Hoşgeldiniz!
Filmbol'u tercih ettiğiniz için teşekkürler, ancak ablock kullanarak devam edemezsiniz.
Merak etmeyin. Heryerden ardı ardına çıkan reklamlar görmeyeceksiniz :)

Sadece site içi 1 reklam göreceksin ve bu site gezintini etkilemeyecek.
Konuyu Oyla:
  • Derecelendirme: 0/5 - 0 oy
  • 1
  • 2
  • 3
  • 4
  • 5
Title: El Royale'de Zor Zamanlar (Bad Times at the El Royale) Türkçe Dublaj m720P İndir
Gösterim Stili
#1
Filmin Yayınlanma Tarihi: 2018 

indirme türü


Bulut + Premium

vizyon tarihi


12 Ekim 2018

Boyutlar


1,48

diller


[TR]

altyazilar


Yok [Eklenebilir]

Video Format: Mkv


Matroska (.MKV)

Video Detay


MPEG-4, 1050Kbps, 1,04GB

imdb puanı


7,2 / 10,0 / 70,000

süre


141 dakika

Ses Kodek: AC3


Audio Coding 3 (AC3)

Ses Detay


448 Kbps, 6 Kanal, 454Mb

Editör Puanı


7,0

Genislik Yukseklik


1280-534

sürüm


x264 | 720P



Film Detayları

El Royale'de Zor Zamanlar (2018) Türkçe Dublaj Bluray Brrip-Xvid İndir | Kısa özet:
1969 Yılları arasında, hepsinin karanlık sıraları olan bir çok kişi, kötü bir geçmişi olan El Royale otelin de karşılaşırlar. Bu gece boyunca, herkes renklerini belli edecek ve büyük bir kargaşa çıkacaktır.
El Royale'de Zor Zamanlar (Bad Times at The El Royale) Filmi İmdb'den 70.000 kişi tarafından oylandı ve 7,2 puan aldı. Bu film için editör puanı 7,0 olarak belirlendi. İyi Seyirler!


Teknik Detaylar



Kod:
General
Complete name                            : Bad.Times.At.The.El.Royale.2018.m720p.BLURAY.x264.TR.Filmbol.mkv
Format                                   : Matroska
Format version                           : Version 4 / Version 2
File size                                : 1.48 GiB
Duration                                 : 2h 21mn
Overall bit rate                         : 1 499 Kbps
Movie name                               : Bad Times at the El Royale (2018) TR 720P - Filmbol.org
Encoded date                             : UTC 2019-01-28 09:55:31
Writing application                      : mkvmerge v8.8.0 ('Wind at my back') 64bit
Writing library                          : libebml v1.3.3 + libmatroska v1.4.4

Video
ID                                       : 1
Format                                   : AVC
Format/Info                              : Advanced Video Codec
Format profile                           : High@L4.1
Format settings, CABAC                   : Yes
Format settings, ReFrames                : 4 frames
Codec ID                                 : V_MPEG4/ISO/AVC
Duration                                 : 2h 21mn
Bit rate                                 : 1 050 Kbps
Width                                    : 1 280 pixels
Height                                   : 534 pixels
Display aspect ratio                     : 2.40:1
Original display aspect ratio            : 2.40:1
Frame rate mode                          : Constant
Frame rate                               : 23.976 (24000/1001) fps
Color space                              : YUV
Chroma subsampling                       : 4:2:0
Bit depth                                : 8 bits
Scan type                                : Progressive
Bits/(Pixel*Frame)                       : 0.064
Stream size                              : 1.04 GiB (70%)
Title                                    : 720P - Filmbol.org
Writing library                          : x264 core 157
Default                                  : Yes
Forced                                   : No

Audio
ID                                       : 2
Format                                   : AC-3
Format/Info                              : Audio Coding 3
Mode extension                           : CM (complete main)
Format settings, Endianness              : Big
Codec ID                                 : A_AC3
Duration                                 : 2h 21mn
Bit rate mode                            : Constant
Bit rate                                 : 448 Kbps
Channel(s)                               : 6 channels
Channel positions                        : Front: L C R, Side: L R, LFE
Sampling rate                            : 48.0 KHz
Frame rate                               : 31.250 fps (1536 spf)
Compression mode                         : Lossy
Stream size                              : 454 MiB (30%)
Title                                    : Türkçe - Filmbol.org
Language                                 : Turkish
Default                                  : Yes
Forced                                   : No

Film Detayları


El Royale de Zor Zamanalr

El Royale de Zor Zamanalr

El Royale de Zor Zamanalr

El Royale de Zor Zamanalr

El Royale de Zor Zamanalr


Film Fragmanı


Film Detayları

Mini 720P İndir


Uptobox ile indir

CloudRu ile indir

mPf3
Mega linki şuan da gizli. Kullanıma açmak için konuya yorum yapın ve ardından sayfayı yenileyin. Ayrıca bu linki açtığınızda reklamsız olarak erişebileceğinizi unutmayın.

Mega

 
Cevapla
#2
Teşekkürler
 
Cevapla
  


Hızlı Menü:


Browsing: 1 Ziyaretçi