Hoşgeldin, Ziyaretçi: Giriş Yap Üye Ol


stats
Adblock'u kapattıysanız tıklayın.
Hoşgeldiniz!
Filmbol'u tercih ettiğiniz için teşekkürler, ancak ablock kullanarak devam edemezsiniz.
Merak etmeyin. Heryerden ardı ardına çıkan reklamlar görmeyeceksiniz :)

Sadece site içi 1 reklam göreceksin ve bu site gezintini etkilemeyecek.
Konuyu Oyla:
  • Derecelendirme: 0/5 - 0 oy
  • 1
  • 2
  • 3
  • 4
  • 5
El Royale'de Zor Zamanlar (Bad Times at the El Royale) Türkçe Dublaj Brrip-Xvid İndir
#1
Filmin Yayınlanma Tarihi: 2018 

indirme türü


Bulut + Premium

vizyon tarihi


12 Ekim 2018

Boyutlar


1,60

diller


[TR]

altyazilar


Yok [Eklenebilir]

Video Format: Avi


Audio Video Interleave (.AVI)

Video Detay


MPEG-4, 1493Kbps, 1,48GB

imdb puanı


7,2 / 10,0 / 70,000

süre


141 dakika

Ses Kodek: MP3


MPEG-1 Audio Layer III (MP3)

Ses Detay


128 Kbps, 2 Kanal, 130Mb

Editör Puanı


7,0

Genislik Yukseklik


720-302

sürüm


h263 | Brrip-Xvid



Film Detayları

El Royale'de Zor Zamanlar (2018) Türkçe Dublaj Bluray Brrip-Xvid İndir | Kısa özet:
1969 Yılları arasında, hepsinin karanlık sıraları olan bir çok kişi, kötü bir geçmişi olan El Royale otelin de karşılaşırlar. Bu gece boyunca, herkes renklerini belli edecek ve büyük bir kargaşa çıkacaktır.
El Royale'de Zor Zamanlar (Bad Times at The El Royale) Filmi İmdb'den 70.000 kişi tarafından oylandı ve 7,2 puan aldı. Bu film için editör puanı 7,0 olarak belirlendi. İyi Seyirler!


Teknik Detaylar




Kod:
General
Complete name                            : Bad.Times.At.The.El.Royale.2018.BRRip.XviD.TR.Filmbol.avi
Format                                   : AVI
Format/Info                              : Audio Video Interleave
File size                                : 1.62 GiB
Duration                                 : 2h 21mn
Overall bit rate                         : 1 634 Kbps

Video
ID                                       : 0
Format                                   : MPEG-4 Visual
Format profile                           : Simple@L5
Format settings, BVOP                    : No
Format settings, QPel                    : No
Format settings, GMC                     : No warppoints
Format settings, Matrix                  : Default (H.263)
Codec ID                                 : XVID
Codec ID/Hint                            : XviD
Duration                                 : 2h 21mn
Bit rate                                 : 1 493 Kbps
Width                                    : 720 pixels
Height                                   : 302 pixels
Display aspect ratio                     : 2.40:1
Frame rate                               : 23.976 fps
Color space                              : YUV
Chroma subsampling                       : 4:2:0
Bit depth                                : 8 bits
Scan type                                : Progressive
Compression mode                         : Lossy
Bits/(Pixel*Frame)                       : 0.286
Stream size                              : 1.48 GiB (91%)
Writing library                          : Lavc58.35.100

Audio
ID                                       : 1
Format                                   : MPEG Audio
Format version                           : Version 1
Format profile                           : Layer 3
Mode                                     : Joint stereo
Mode extension                           : MS Stereo
Codec ID                                 : 55
Codec ID/Hint                            : MP3
Duration                                 : 2h 21mn
Bit rate mode                            : Constant
Bit rate                                 : 128 Kbps
Channel(s)                               : 2 channels
Sampling rate                            : 48.0 KHz
Compression mode                         : Lossy
Stream size                              : 130 MiB (8%)
Alignment                                : Aligned on interleaves
Interleave, duration                     : 24 ms (0.58 video frame)

Film Detayları


El Royale de Zor Zamanalr

El Royale de Zor Zamanalr

El Royale de Zor Zamanalr

El Royale de Zor Zamanalr

El Royale de Zor Zamanalr


Film Fragmanı


Film Detayları

Brrip İndir


Turbobit İle İndir

Uptobox ile indir

Cloud Ru ile indir

Dosya Co ile indir

Dosya Upload ile indir

Mega ile indir

 
Cevapla
  


Konu ile Alakalı Benzer Konular
Konular Yazar Yorumlar Okunma Son Yorum
Filmin Yayınlanma Tarihi: 2018 Öykü (The Tale) Türkçe Dublaj Brrip-Xvid İndir BroserBros 0 345 23-08-2018, Saat: 20:47
Son Yorum: BroserBros
Filmin Yayınlanma Tarihi: 2015 Geçmişten Gelen (The Gift) Türkçe Dublaj Brrip-Xvid İndir BroserBros 0 877 27-02-2017, Saat: 21:50
Son Yorum: BroserBros
Filmin Yayınlanma Tarihi: 2016 Yüce Sezar (Hail Ceaser) Türkçe Dublaj Brrip-Xvid İndir BroserBros 0 714 23-02-2017, Saat: 21:04
Son Yorum: BroserBros
Filmin Yayınlanma Tarihi: 2016 Manhattan Night (Manhattan Nocturne) Türkçe Dublaj Brrip-Xvid İndir BroserBros 0 746 30-01-2017, Saat: 15:23
Son Yorum: BroserBros
Filmin Yayınlanma Tarihi: 2015 Synchronicity Türkçe Dublaj Brrip-Xvid İndir BroserBros 0 702 26-01-2017, Saat: 20:38
Son Yorum: BroserBros

Hızlı Menü:


Şu anda bu konuyu okuyanlar: 1 Ziyaretçi