Filmbol Forum Film İndir 1080P v El Camino: Bir Breaking Bad Filmi (2019) Türkçe Dublaj BLURAY m1080P İndir
Mega linklerinin şikayet edilmemesi için global erişime kapatıp sadece yorum yapanlara açıyoruz. Bu linkleri gizleme işlemini mecburen yapıyoruz ve yorum yapmanızın siteye değil size faydası vardır. Teşekürler yazmayı çok görüp, Random/Spam mesajlar atarak Mega linklerini açmaya çalışan kullanıcılara önce süresiz ban, devam ederse IP ban atacağız.
Filmbol'da moderatör olmak ister misiniz? Bizimle iletişime geçmek için tıklayın!
El Camino: Bir Breaking Bad Filmi (2019) Türkçe Dublaj BLURAY m1080P İndir
BroserBros
El Camino: Bir Breaking Bad Filmi (2019) Türkçe Dublaj BLURAY m1080P İndir
8
930
  • Derecelendirme: 0/5 - 0 oy
  • 1
  • 2
  • 3
  • 4
  • 5
Konuyu Okuyanlar:1 Ziyaretçi
Şuan Online!
Filmin Yayınlanma Tarihi: 2019 
WWW
Şuan Online!
BroserBros Kurucu Admin
*******
Admin





Ses Kodek: AC3


Audio Coding 3 (AC3)






El Camino: Bir Breaking Bad Filmi



Teknik Detaylar


Kod :
General
Complete name                            : El.Camino.Bir.Breaking.Bad.Filmi.2019.m1080p.NF.WEB-DL.TR.Filmbol.mkv
Format                                   : Matroska
Format version                           : Version 4 / Version 2
File size                                : 3.44 GiB
Duration                                 : 2h 2mn
Overall bit rate mode                    : Variable
Overall bit rate                         : 4 017 Kbps
Movie name                               : El Camino: Bir Breaking Bad Filmi (2019) - Filmbol.org
Encoded date                             : UTC 2019-11-13 03:00:10
Writing application                      : mkvmerge v35.0.0 ('All The Love In The World') 64-bit
Writing library                          : libebml v1.3.9 + libmatroska v1.5.2

Video
ID                                       : 1
Format                                   : AVC
Format/Info                              : Advanced Video Codec
Format profile                           : [email protected]
Format settings, CABAC                   : Yes
Format settings, ReFrames                : 3 frames
Codec ID                                 : V_MPEG4/ISO/AVC
Duration                                 : 2h 2mn
Bit rate mode                            : Variable
Bit rate                                 : 3 650 Kbps
Maximum bit rate                         : 5 475 Kbps
Width                                    : 1 920 pixels
Height                                   : 1 080 pixels
Display aspect ratio                     : 16:9
Frame rate mode                          : Constant
Frame rate                               : 24.000 fps
Color space                              : YUV
Chroma subsampling                       : 4:2:0
Bit depth                                : 8 bits
Scan type                                : Progressive
Bits/(Pixel*Frame)                       : 0.073
Stream size                              : 3.11 GiB (90%)
Title                                    : 1080P - Filmbol.org
Writing library                          : x264 core 148 r2715 7e75228
Default                                  : Yes
Forced                                   : No

Audio
ID                                       : 3
Format                                   : AC-3
Format/Info                              : Audio Coding 3
Mode extension                           : CM (complete main)
Format settings, Endianness              : Big
Codec ID                                 : A_AC3
Duration                                 : 2h 2mn
Bit rate mode                            : Constant
Bit rate                                 : 384 Kbps
Channel(s)                               : 6 channels
Channel positions                        : Front: L C R, Side: L R, LFE
Sampling rate                            : 48.0 KHz
Frame rate                               : 31.250 fps (1536 spf)
Compression mode                         : Lossy
Stream size                              : 337 MiB (10%)
Title                                    : Türkçe - Filmbol.org
Language                                 : Turkish
Default                                  : Yes
Forced                                   : Yes

Text
ID                                       : 2
Format                                   : UTF-8
Codec ID                                 : S_TEXT/UTF8
Codec ID/Info                            : UTF-8 Plain Text
Duration                                 : 2h 1mn
Bit rate                                 : 0 bps
Count of elements                        : 16
Stream size                              : 353 Bytes (0%)
Title                                    : KISIM
Default                                  : Yes
Forced                                   : Yes

Film Detayları


El Camino: Bir Breaking Bad Filmi

El Camino: Bir Breaking Bad Filmi

El Camino: Bir Breaking Bad Filmi


Film Fragmanı


Film Detayları

Mini 1080P İndir



Uptobox ile indir

MediaFire ile indir

Google Drive linki şuan da gizli. Kullanıma açmak için konuya yorum yapın ve ardından sayfayı yenileyin.

Google Drive

Şuan Offine!
Şuan Offine!
Arif DEĞERCAN Süper Üye
***
Super Üye

  • Konular0
  • Mesajlar33
  • Rep puanı 0
Cool Cool Cool Cool Cool
Şuan Offine!
Şuan Offine!
onurdmrkrn Yeni Üye
*
Üye

  • Konular0
  • Mesajlar2
  • Rep puanı 0
teşekkürler
Şuan Offine!
Şuan Offine!
kinq0438 Yeni Üye
*
Üye

  • Konular0
  • Mesajlar2
  • Rep puanı 0
emeqinize saqlık
Şuan Offine!
Şuan Offine!
MAY20 Yeni Üye
*
Üye

  • Konular0
  • Mesajlar1
  • Rep puanı 0
teşekkürler
Şuan Offine!
Şuan Offine!
Haylaz53 Uzman Üye
**
Uzman Üye

  • Konular0
  • Mesajlar13
  • Rep puanı 0
Mikemmel Smile
Şuan Offine!
Şuan Offine!
muda Uzman Üye
**
Uzman Üye

  • Konular0
  • Mesajlar8
  • Rep puanı 0
tskler emegıne saglık
Şuan Offine!
Şuan Offine!
afkur Uzman Üye
**
Uzman Üye

  • Konular0
  • Mesajlar7
  • Rep puanı 0
teşekkür
Şuan Offine!
Şuan Offine!
imamx Yeni Üye
*
Üye

  • Konular0
  • Mesajlar2
  • Rep puanı 0
Teşekkürler.


Konu ile Alakalı Benzer Konular
Konular Yazar Yorumlar Okunma Son Yorum
Filmin Yayınlanma Tarihi: 2019
Sırlar Kitabı (Les traducteurs) - 2019 - TR+ORG - 1080P | tt6270534 TheSteeL 1 72 , Saat: 21:59
Son Yorum: ahmettuncr
Filmin Yayınlanma Tarihi: 2018
Parti Kraliçesi (Life of The Party) Türkçe Dublaj m1080P İndir BroserBros 1 692 04-03-2021, Saat: 20:29
Son Yorum: windowsxp
Filmin Yayınlanma Tarihi: 2019
Ölüm Takımı (The Kill Team) - 2019 - TR+ORG - 1080P | tt6196936 TheSteeL 2 70 04-03-2021, Saat: 16:02
Son Yorum: TheSteeL
Filmin Yayınlanma Tarihi: 2007
Harry Potter ve Zümrüdüanka Yoldaşlığı (2007) Türkçe Dublaj BLURAY m1080P İndir BroserBros 18 1,446 04-03-2021, Saat: 14:38
Son Yorum: bjk1001
Filmin Yayınlanma Tarihi: 2005
Harry Potter ve Ateş Kadehi (Goblet of Fire) Türkçe Dublaj BLURAY 1080P İndir BroserBros 30 2,896 04-03-2021, Saat: 13:08
Son Yorum: bjk1001

Hızlı Menü: