Filmbol Forum Film İndir 1080P v Ejderhalar: Altın Ejder Avı (Dragons: Rescue Riders) - 2020 - TR - 1080P
Moderatör Alımları Başladı! Başvuru yapmak için tıklayın.
Filmbol Premium'da %50'e varan indirim fırsatı!
Ejderhalar: Altın Ejder Avı (Dragons: Rescue Riders) - 2020 - TR - 1080P
BroserBros
Ejderhalar: Altın Ejder Avı (Dragons: Rescue Riders) - 2020 - TR - 1080P
2
162
  • Derecelendirme: 0/5 - 0 oy
  • 1
  • 2
  • 3
  • 4
  • 5
Konuyu Okuyanlar:1 Ziyaretçi
Şuan Online!
Filmin Yayınlanma Tarihi: 2020 
Şuan Online!
BroserBros Kurucu Admin
*******
Admin

Vizyon Tarihi


27 Mart 2020

imdb puanı


6,2 / 100

süre


46 dakika

Editör Puanı


5,5 / 10

Video Format: Mkv


Matroska (.MKV)

Ses Kodek: AC3


Audio Coding 3 (AC3)

sürüm


x264 | 1080P | BLURAY

Boyutlar


1,55 GB



 Ejderhalar: Altın Ejder Avı



Daha öncesinden bir dizi olarak devam eden Ejderhalar: Kurtarıcı Ekibi serisi şimdi yeni bir film haline geliyor ve bu sefer dostlarımızın görevi başına bir şey gelmemesi gereken bir yumurtayı korumak oluyor...

Ejderhalar: Altın Ejder Avı (2020) (Dragons: Rescue Riders) Filmi Imdb'den 100 kişi tarafından oylandı ve 6,2 puan aldı. Bu film için editör puanı 5,5 olarak belirlendi. İyi Seyirler!

Teknik Detaylar

Kod :
General
Unique ID                                : 255090878181500104438387617576943692281 (0xBFE8B75136CF04CA1D709EEEC08529F9)
Complete name                            : /root/Desktop/2/Ejderhalar.Altın.Ejder.Avı.2020.1080p.WEB-DL.x264.TR.ENG.Filmbol.mkv
Format                                  : Matroska
Format version                          : Version 4 / Version 2
File size                                : 1.55 GiB
Duration                                : 46mn 20s
Overall bit rate mode                    : Variable
Overall bit rate                        : 4 783 Kbps
Movie name                              : Ejderhalar: Altın Ejder Avı (2020) - Filmbol.org
Encoded date                            : UTC 2020-04-22 12:15:35
Writing application                      : mkvmerge v8.8.0 ('Wind at my back') 64bit
Writing library                          : libebml v1.3.3 + libmatroska v1.4.4

Video
ID                                      : 1
Format                                  : AVC
Format/Info                              : Advanced Video Codec
Format profile                          : Main@L4
Format settings, CABAC                  : Yes
Format settings, ReFrames                : 3 frames
Codec ID                                : V_MPEG4/ISO/AVC
Duration                                : 46mn 19s
Bit rate mode                            : Variable
Bit rate                                : 3 830 Kbps
Maximum bit rate                        : 5 745 Kbps
Width                                    : 1 920 pixels
Height                                  : 1 080 pixels
Display aspect ratio                    : 16:9
Frame rate mode                          : Constant
Frame rate                              : 23.976 (24000/1001) fps
Color space                              : YUV
Chroma subsampling                      : 4:2:0
Bit depth                                : 8 bits
Scan type                                : Progressive
Bits/(Pixel*Frame)                      : 0.077
Stream size                              : 1.22 GiB (79%)
Title                                    : 1080P
Writing library                          : x264 core 148 r2715 7e75228
Encoding settings                        : cabac=1 / ref=3 / deblock=1:0:0 / analyse=0x1:0x111 / me=umh / subme=10 / psy=1 / psy_rd=1.00:0.00 / mixed_ref=1 / me_range=24 / chroma_me=1 / trellis=2 / 8x8dct=0 / cqm=0 / deadzone=21,11 / fast_pskip=1 / chroma_qp_offset=-2 / threads=8 / lookahead_threads=1 / sliced_threads=0 / nr=0 / decimate=1 / interlaced=0 / bluray_compat=0 / stitchable=1 / constrained_intra=0 / bframes=2 / b_pyramid=0 / b_adapt=2 / b_bias=0 / direct=3 / weightb=1 / open_gop=0 / weightp=2 / keyint=250 / keyint_min=23 / scenecut=0 / intra_refresh=0 / rc_lookahead=48 / rc=2pass / mbtree=1 / bitrate=3830 / ratetol=1.0 / qcomp=0.50 / qpmin=6 / qpmax=51 / qpstep=4 / cplxblur=20.0 / qblur=0.5 / vbv_maxrate=5745 / vbv_bufsize=7660 / nal_hrd=vbr / filler=0 / ip_ratio=1.40 / aq=1:1.00
Default                                  : Yes
Forced                                  : No

Audio #1
ID                                      : 2
Format                                  : AC-3
Format/Info                              : Audio Coding 3
Mode extension                          : CM (complete main)
Format settings, Endianness              : Big
Codec ID                                : A_AC3
Duration                                : 46mn 20s
Bit rate mode                            : Constant
Bit rate                                : 640 Kbps
Channel(s)                              : 6 channels
Channel positions                        : Front: L C R, Side: L R, LFE
Sampling rate                            : 48.0 KHz
Frame rate                              : 31.250 fps (1536 spf)
Compression mode                        : Lossy
Stream size                              : 212 MiB (13%)
Title                                    : Türkçe
Language                                : Turkish
Default                                  : Yes
Forced                                  : No

Audio #2
ID                                      : 3
Format                                  : AC-3
Format/Info                              : Audio Coding 3
Mode extension                          : CM (complete main)
Format settings, Endianness              : Big
Codec ID                                : A_AC3
Duration                                : 46mn 20s
Bit rate mode                            : Constant
Bit rate                                : 384 Kbps
Channel(s)                              : 6 channels
Channel positions                        : Front: L C R, Side: L R, LFE
Sampling rate                            : 48.0 KHz
Frame rate                              : 31.250 fps (1536 spf)
Compression mode                        : Lossy
Stream size                              : 127 MiB (8%)
Title                                    : İngilizce
Language                                : English
Default                                  : No
Forced                                  : No

Text #1
ID                                      : 4
Format                                  : UTF-8
Codec ID                                : S_TEXT/UTF8
Codec ID/Info                            : UTF-8 Plain Text
Duration                                : 45mn 5s
Bit rate                                : 0 bps
Count of elements                        : 2
Stream size                              : 61.0 Bytes (0%)
Title                                    : KISIM
Language                                : Turkish
Default                                  : Yes
Forced                                  : Yes

Text #2
ID                                      : 5
Format                                  : UTF-8
Codec ID                                : S_TEXT/UTF8
Codec ID/Info                            : UTF-8 Plain Text
Duration                                : 45mn 5s
Bit rate                                : 64 bps
Count of elements                        : 808
Stream size                              : 21.3 KiB (0%)
Title                                    : Türkçe Altyazı
Language                                : Turkish
Default                                  : No
Forced                                  : No

Film Detayları


 Ejderhalar: Altın Ejder Avı

 Ejderhalar: Altın Ejder Avı

 Ejderhalar: Altın Ejder Avı


Film Fragmanı


Film Detayları

Uptobox ile indir

1Fichier ile indir

1Fichier'den İndiremiyor musun? Tıklayın!


Mega ile indir

Bunun için üzgünüz ancak, bu linke sadece premium üyeler erişebilir.

Filmbol Cloud

Şuan Offine!
Şuan Offine!
naşifetemiz Yeni Üye
*
Üye

  • Konular0
  • Mesajlar2
  • Rep puanı 0
MEDİAFİRE LİNKINI GERI GETIRIRMISINIZ...
Şuan Online!
Şuan Online!
BroserBros Kurucu Admin
*******
Admin

(23-04-2020, Saat: 19:35)naşifetemiz Adlı Kullanıcıdan Alıntı: MEDİAFİRE LİNKINI GERI GETIRIRMISINIZ...
Mediafire linkleri çabuk sildiği için kaldırdık. Ancak Mega, Uptobox ve 1Fichier  Mediafire ile aynı hızdadır.


Konu ile Alakalı Benzer Konular
Konular Yazar Yorumlar Okunma Son Yorum
Filmin Yayınlanma Tarihi: 2014
Lego Filmi (The Lego Movie) - 2014 - TR+ORG - 1080P BroserBros 0 17 9 saat önce
Son Yorum: BroserBros
Filmin Yayınlanma Tarihi: 2014
Nuh: Büyük Tufan (Noah) - 2014 - TR+ORG - 1080P BroserBros 0 20 9 saat önce
Son Yorum: BroserBros
Filmin Yayınlanma Tarihi: 2014
Yarının Sınırında (Edge of Tomorrow) - 2014 - TR+ORG - 1080P BroserBros 0 35 , Saat: 20:41
Son Yorum: BroserBros
Filmin Yayınlanma Tarihi: 2014
300: Bir İmparatorluğun Yükselişi (300: Rise of an Empire - 300 Spartalı 2) - 2014 - TR+ORG - 1080P BroserBros 0 56 04-06-2020, Saat: 13:39
Son Yorum: BroserBros
Filmin Yayınlanma Tarihi: 2020
Kirpi Sonic (Sonic the Hedgehog) - 2020 - TR+ORG - 1080P BroserBros 0 64 04-06-2020, Saat: 12:57
Son Yorum: BroserBros

Hızlı Menü: