Filmbol Forum Film İndir UHD - ULTRA HD - 4K v Dünya: Muhteşem Bir Gün (Earth: One Amazing Day) Türkçe Dublaj BLURAY DUAL 4K indir
Mega linklerinin şikayet edilmemesi için global erişime kapatıp sadece yorum yapanlara açıyoruz. Bu linkleri gizleme işlemini mecburen yapıyoruz ve yorum yapmanızın siteye değil size faydası vardır. Teşekürler yazmayı çok görüp, Random/Spam mesajlar atarak Mega linklerini açmaya çalışan kullanıcılara önce süresiz ban, devam ederse IP ban atacağız.
Filmbol'da moderatör olmak ister misiniz? Bizimle iletişime geçmek için tıklayın!
Dünya: Muhteşem Bir Gün (Earth: One Amazing Day) Türkçe Dublaj BLURAY DUAL 4K indir
BroserBros
Dünya: Muhteşem Bir Gün (Earth: One Amazing Day) Türkçe Dublaj BLURAY DUAL 4K indir
1
370
  • Derecelendirme: 0/5 - 0 oy
  • 1
  • 2
  • 3
  • 4
  • 5
Konuyu Okuyanlar:1 Ziyaretçi
Şuan Online!
Filmin Yayınlanma Tarihi: 2017 
WWW
Şuan Online!
BroserBros Kurucu Admin
*******
Admin








 Dünya: Muhteşem Bir Gün (Belgesel)



Gezegenimizde ki canlıları daha yakından tanımak ister misiniz? Cevabınız evet ise Dünya: İnanılmaz Bir Gün belgeseli tam da size göre. Bu olaganüstü belgeselin o kadar güzel kayıtları var ki, bunları bir çok yerde görmüş olma ihtimaliniz yüksek. BBC'nin yapımcılığını üstlendiği belgeselde gezegenin en ucra yerlerinde bulunan yaşamları mercek altına alıyor. Ayrıca belgesel yine BBC'nin Planet Earth belgeselinin devamı niteliğinde...

Dünya: Muhteşem Bir Gün (Belgesel) (2017) (Earth: One Amazing Day) Filmi Imdb'den 3,000 kişi tarafından oylandı ve 7,8 puan aldı. Bu film için editör puanı 7,0 olarak belirlendi. İyi Seyirler!

Teknik Detaylar

Kod :
General
Unique ID                                : 279935493767425473288762171455745972510 (0xD2999D704511438E65D1D8A9E4CE591E)
Complete name                            : /root/Desktop/1/Dünya.Muhteşem.Bir.Gün.2017.4K.2160P.BLURAY.x265.10Bit.TR.Filmbol.mkv
Format                                   : Matroska
Format version                           : Version 4 / Version 2
File size                                : 3.66 GiB
Duration                                 : 1h 33mn
Overall bit rate                         : 5 592 Kbps
Movie name                               : Dünya: Muhteşem Bir Gün (2017) - Filmbol.org
Encoded date                             : UTC 2020-02-27 12:32:30
Writing application                      : mkvmerge v35.0.0 ('All The Love In The World') 64-bit
Writing library                          : libebml v1.3.9 + libmatroska v1.5.2

Video
ID                                       : 1
Format                                   : HEVC
Format/Info                              : High Efficiency Video Coding
Format profile                           : Main [email protected]@High
Codec ID                                 : V_MPEGH/ISO/HEVC
Duration                                 : 1h 33mn
Bit rate                                 : 5 081 Kbps
Width                                    : 3 840 pixels
Height                                   : 2 160 pixels
Display aspect ratio                     : 16:9
Frame rate mode                          : Constant
Frame rate                               : 24.000 fps
Color space                              : YUV
Chroma subsampling                       : 4:2:0
Bit depth                                : 10 bits
Bits/(Pixel*Frame)                       : 0.026
Stream size                              : 3.33 GiB (91%)
Title                                    : 4K - Filmbol.org
Writing library                          : x265 2.9:[Windows][GCC 7.1.0][64 bit] 10bit
Encoding settings                        : cpuid=1049583 / frame-threads=6 / numa-pools=32,0 / wpp / no-pmode / no-pme / no-psnr / no-ssim / log-level=2 / input-csp=1 / input-res=3840x2160 / interlace=0 / total-frames=0 / level-idc=50 / high-tier=1 / uhd-bd=0 / ref=1 / no-allow-non-conformance / no-repeat-headers / annexb / no-aud / no-hrd / info / hash=0 / no-temporal-layers / open-gop / min-keyint=24 / keyint=240 / gop-lookahead=0 / bframes=0 / b-adapt=0 / no-b-pyramid / bframe-bias=0 / rc-lookahead=8 / lookahead-slices=0 / scenecut=100 / radl=0 / no-intra-refresh / ctu=32 / min-cu-size=16 / no-rect / no-amp / max-tu-size=32 / tu-inter-depth=3 / tu-intra-depth=3 / limit-tu=4 / rdoq-level=2 / dynamic-rd=0.00 / no-ssim-rd / signhide / no-tskip / nr-intra=0 / nr-inter=0 / no-constrained-intra / strong-intra-smoothing / max-merge=4 / limit-refs=1 / limit-modes / me=2 / subme=4 / merange=57 / temporal-mvp / weightp / weightb / no-analyze-src-pics / deblock=6:6 / sao / no-sao-non-deblock / rd=1 / no-early-skip / rskip / no-fast-intra / no-tskip-fast / no-cu-lossless / b-intra / no-splitrd-skip / rdpenalty=0 / psy-rd=0.00 / psy-rdoq=0.00 / no-rd-refine / no-lossless / cbqpoffs=-6 / crqpoffs=-2 / rc=crf / crf=28.5 / qcomp=0.60 / qpstep=4 / stats-write=0 / stats-read=0 / vbv-maxrate=100000 / vbv-bufsize=100000 / vbv-init=0.9 / crf-max=0.0 / crf-min=0.0 / ipratio=1.40 / aq-mode=3 / aq-strength=1.20 / cutree / zone-count=0 / no-strict-cbr / qg-size=32 / no-rc-grain / qpmax=69 / qpmin=0 / no-const-vbv / sar=1 / overscan=0 / videoformat=5 / range=0 / colorprim=9 / transfer=16 / colormatrix=9 / chromaloc=0 / display-window=0 / max-cll=0,0 / min-luma=0 / max-luma=1023 / log2-max-poc-lsb=8 / vui-timing-info / vui-hrd-info / slices=1 / no-opt-qp-pps / no-opt-ref-list-length-pps / no-multi-pass-opt-rps / scenecut-bias=0.01 / no-opt-cu-delta-qp / no-aq-motion / no-hdr / no-hdr-opt / no-dhdr10-opt / no-idr-recovery-sei / analysis-reuse-level=5 / scale-factor=0 / refine-intra=0 / refine-inter=0 / refine-mv=0 / no-limit-sao / ctu-info=0 / no-lowpass-dct / refine-mv-type=0 / copy-pic=1 / max-ausize-factor=1.0 / no-dynamic-refine / no-single-sei
Default                                  : Yes
Forced                                   : No
Color range                              : Limited
Color primaries                          : BT.2020
Matrix coefficients                      : BT.2020 non-constant

Audio #1
ID                                       : 2
Format                                   : AC-3
Format/Info                              : Audio Coding 3
Mode extension                           : CM (complete main)
Format settings, Endianness              : Big
Codec ID                                 : A_AC3
Duration                                 : 1h 33mn
Bit rate mode                            : Constant
Bit rate                                 : 192 Kbps
Channel(s)                               : 2 channels
Channel positions                        : Front: L R
Sampling rate                            : 48.0 KHz
Frame rate                               : 31.250 fps (1536 spf)
Compression mode                         : Lossy
Delay relative to video                  : -5ms
Stream size                              : 129 MiB (3%)
Title                                    : Türkçe - Filmbol.org
Language                                 : Turkish
Default                                  : No
Forced                                   : No

Audio #2
ID                                       : 3
Format                                   : AC-3
Format/Info                              : Audio Coding 3
Mode extension                           : CM (complete main)
Format settings, Endianness              : Big
Codec ID                                 : A_AC3
Duration                                 : 1h 33mn
Bit rate mode                            : Constant
Bit rate                                 : 320 Kbps
Channel(s)                               : 6 channels
Channel positions                        : Front: L C R, Side: L R, LFE
Sampling rate                            : 48.0 KHz
Frame rate                               : 31.250 fps (1536 spf)
Compression mode                         : Lossy
Delay relative to video                  : -5ms
Stream size                              : 215 MiB (6%)
Title                                    : English - Filmbol.org
Language                                 : English
Default                                  : Yes
Forced                                   : No

Film Detayları


 Dünya: Muhteşem Bir Gün (Belgesel)

 Dünya: Muhteşem Bir Gün (Belgesel)

 Dünya: Muhteşem Bir Gün (Belgesel)


Film Fragmanı


Film Detayları

Uptobox ile indir

1Fichier ile indir

1Fichier'den İndiremiyor musun? Tıklayın!


Mega linki şuan da gizli. Kullanıma açmak için konuya yorum yapın ve ardından sayfayı yenileyin.

Mega


MediaFire ile indir

Şuan Offine!
Şuan Offine!
cucuk Yeni Üye
*
Üye

  • Konular0
  • Mesajlar3
  • Rep puanı 0
eyvallah


Konu ile Alakalı Benzer Konular
Konular Yazar Yorumlar Okunma Son Yorum
Filmin Yayınlanma Tarihi: 2007
Ben Efsaneyim (I Am Legend) Türkçe Dublaj BLURAY DUAL 4K indir BroserBros 0 329 24-03-2020, Saat: 21:18
Son Yorum: BroserBros
Filmin Yayınlanma Tarihi: 2019
Tavşan Jojo (Jojo Rabbit) Türkçe Dublaj BLURAY DUAL 4K indir BroserBros 0 334 19-03-2020, Saat: 21:15
Son Yorum: BroserBros
Filmin Yayınlanma Tarihi: 2019
Asfaltın Kralları (Ford v Ferrari) Türkçe Dublaj BLURAY DUAL 4K indir BroserBros 3 358 13-03-2020, Saat: 11:12
Son Yorum: cucuk
Filmin Yayınlanma Tarihi: 2019
Anna (2019) Türkçe Dublaj BLURAY DUAL 4K indir BroserBros 1 331 03-03-2020, Saat: 23:35
Son Yorum: steelhand
Filmin Yayınlanma Tarihi: 2019
Terminatör: Kara Kader (Terminator: Dark Fate) türkçe Dublaj BLURAY DUAL 4K indir BroserBros 3 395 01-03-2020, Saat: 22:46
Son Yorum: kartal2552

Hızlı Menü: