Filmbol Forum Film İndir BRRip XviD v Dul Kadınlar (Widows) Türkçe Dublaj Brrip Xvid İndir
Filmbol'da moderatör olmak ister misiniz? Bizimle iletişime geçmek için tıklayın!
Dul Kadınlar (Widows) Türkçe Dublaj Brrip Xvid İndir
BroserBros
Dul Kadınlar (Widows) Türkçe Dublaj Brrip Xvid İndir
1
418
  • Derecelendirme: 0/5 - 0 oy
  • 1
  • 2
  • 3
  • 4
  • 5
Konuyu Okuyanlar:1 Ziyaretçi
Şuan Online!
Filmin Yayınlanma Tarihi: 2018 
Şuan Online!
BroserBros Kurucu Admin
*******
Admin

indirme türü


Bulut + Premium

Vizyon Tarihi


16 Kasım 2018

Boyutlar


1,45

diller


[TR]

altyazilar


Yok [Eklenebilir]

Video Format: Avi


Audio Video Interleave (.AVI)

Video Detay


MPEG-4, 1472 Kbps, 1,33GB

imdb puanı


6,9 / 10,0 / 69,000

süre


129dakika

Ses Kodek: MP3


MPEG-1 Audio Layer III (MP3)

Ses Detay


128 Kbps, 2 Kanal, 120Mb

Editör Puanı


6,7

Genislik Yukseklik


720-302

sürüm


h263 | Brrip Xvid




Dul Kadinlar


Film Detayları

Dul Kadınlar, ölen eşlerinin kendilerine bıraktıkları borçtan kurtulmaya çalışan 4 kadının hikayesini konu ediyor. Modern Şikago'da geçen filmde, dört kadının tek ortak noktası; dul kalmış olmalarıdır. Ölen eşlerinin yasını tutan kadınların tek derdi yalnızca sevdikleri adamları özlemekle de sınırlı değildir. Ölen eşlerinin hepsi yasadışı işlere bulaşmışlardır. Asıl mesele, ölen eşlerin geride kalan dullarına suç dünyasında işledikleri suçları borç bırakmış olmasıdır. Ellerinde borçları ödeyecek para olmayan dul kadınların tek şansı, riskli bir soyguna girişmektir. Veronica liderliğinde bir araya gelen Alice, Linda ve Belle, geleceklerini istedikleri gibi yaratmak için iş birliği yapar. Şu ana dek eşleri tarafından yönlendirilmiş olan pasif hayatları artık onların elindedir ve şekillendirilmeyi beklemektedir...
“Açlık”, “Utanç” ve “12 Yıllık Esaret” filmlerinin Oscar ödüllü yönetmeni Steve McQueen’in yönetmen koltuğunda oturduğu filmin başrollerini Oscar ödüllü Viola Davis, “Hızlı ve Öfkeli” serisinin yıldızı Michelle Rodriguez, “The Night Manager”dan tanıdığımız Elizabeth Debicki ve Cynthia Erivo dörtlüsü paylaşıyor. Filmin senaryosunda yönetmen McQueen ile Gillian Flynn’ın imzası bulunuyor.
 
Dul Kadınlar (Widows) Filmi Imdb'den 69,000 kişi tarafından oylandı ve 6,9 puan aldı. Bu film için editör puanı 6,7 olarak belirlendi. İyi Seyirler!


Teknik Detaylar


Kod :
General
Complete name                            : Dul.Kadınlar.2018.BRRip.XviD.TR.Filmbol.avi
Format                                   : AVI
Format/Info                              : Audio Video Interleave
File size                                : 1.46 GiB
Duration                                 : 2h 9mn
Overall bit rate                         : 1 613 Kbps

Video
ID                                       : 0
Format                                   : MPEG-4 Visual
Format profile                           : Simple@L5
Format settings, BVOP                    : No
Format settings, QPel                    : No
Format settings, GMC                     : No warppoints
Format settings, Matrix                  : Default (H.263)
Codec ID                                 : XVID
Codec ID/Hint                            : XviD
Duration                                 : 2h 9mn
Bit rate                                 : 1 472 Kbps
Width                                    : 720 pixels
Height                                   : 302 pixels
Display aspect ratio                     : 2.40:1
Frame rate                               : 23.976 fps
Color space                              : YUV
Chroma subsampling                       : 4:2:0
Bit depth                                : 8 bits
Scan type                                : Progressive
Compression mode                         : Lossy
Bits/(Pixel*Frame)                       : 0.282
Stream size                              : 1.33 GiB (91%)
Writing library                          : Lavc58.35.100

Audio
ID                                       : 1
Format                                   : MPEG Audio
Format version                           : Version 1
Format profile                           : Layer 3
Mode                                     : Joint stereo
Mode extension                           : MS Stereo
Codec ID                                 : 55
Codec ID/Hint                            : MP3
Duration                                 : 2h 9mn
Bit rate mode                            : Constant
Bit rate                                 : 128 Kbps
Channel(s)                               : 2 channels
Sampling rate                            : 48.0 KHz
Compression mode                         : Lossy
Stream size                              : 119 MiB (8%)
Alignment                                : Aligned on interleaves
Interleave, duration                     : 24 ms (0.58 video frame)


Film Detayları


Dul Kadinlar

Dul Kadinlar

Dul Kadinlar


Film Fragmanı


Film Detayları

Brrip İndir


LetsUpload ile indir


Mega ile indir

noKM
Şuan Offine!
Şuan Offine!
forget Uzman Üye
**
Uzman Üye

  • Konular0
  • Mesajlar7
  • Rep puanı 0
elinize sağlık


Konu ile Alakalı Benzer Konular
Konular Yazar Yorumlar Okunma Son Yorum
Filmin Yayınlanma Tarihi: 2019
Luce (Luce) - 2019 - TR - BRRip XviD BroserBros 0 16 9 saat önce
Son Yorum: BroserBros
Filmin Yayınlanma Tarihi: 2020
Aşka İnan (I Still Believe) - 2020 - TR - BRRip XviD BroserBros 0 15 10 saat önce
Son Yorum: BroserBros
Filmin Yayınlanma Tarihi: 2018
Döndüm Ben (Yerli) - 2018 - TR - BRRip XviD BroserBros 0 36 27-11-2020, Saat: 18:40
Son Yorum: BroserBros
Filmin Yayınlanma Tarihi: 2018
Bana Bir Soygun Yaz 2 (Yerli) - 2018 - TR - BRRip XviD BroserBros 0 27 27-11-2020, Saat: 18:26
Son Yorum: BroserBros
Filmin Yayınlanma Tarihi: 2007
Amerikan Pastası 6: Beta Evi (American Pie: Beta House) - 2007 - TR - BRRip XviD BroserBros 2 247 27-11-2020, Saat: 14:31
Son Yorum: tayyib5731

Hızlı Menü: