Hoşgeldin, Ziyaretçi: Giriş Yap Üye Ol


stats
Adblock'u kapattıysanız tıklayın.
Hoşgeldiniz!
Filmbol'u tercih ettiğiniz için teşekkürler, ancak ablock kullanarak devam edemezsiniz.
Merak etmeyin. Heryerden ardı ardına çıkan reklamlar görmeyeceksiniz :)

Sadece site içi 1 reklam göreceksin ve bu site gezintini etkilemeyecek.
Konuyu Oyla:
  • Derecelendirme: 0/5 - 0 oy
  • 1
  • 2
  • 3
  • 4
  • 5
Title: Dora ve Kayıp Altın Şehri (Dora and the Lost City..) Türkçe Dublaj Brrip Xvid İndir
Gösterim Stili
#1
Filmin Yayınlanma Tarihi: 2019 

indirme türü


Bulut + Premium

vizyon tarihi


09 Ağustos 2019

Boyutlar


1,24

diller


[TR]

altyazilar


KISIM [Eklenebilir]

Video Format: Avi


Audio Video Interleave (.AVI)

Video Detay


MPEG-4, 1596Kbps, 1,14GB

imdb puanı


6,0 / 10,0 / 12,000

süre


102 dakika

Ses Kodek: MP3


MPEG-1 Audio Layer III (MP3)

Ses Detay


128 Kbps, 2 Kanal, 94Mb

Editör Puanı


6,3

Genislik Yukseklik


720-400

sürüm


h263 | Brrip Xvid





Dora ve Kayıp Altın Şehri


Film Detayları

Dora, doğayla iç içe büyümüş bir kızdır. Hayatının büyük bölümünü ailesiyle birlikte ormanları keşfederek ve doğayla iç içe geçirmiştir. Ancak şimdi Dora'nın önünde onu balta girmemiş ormanlardan çok daha fazla korkutan bir macera vardır ve bu maceradan kaçma şansı yoktur. Artık liseye gitmek zorundadır. Her zaman bir kaşifin ruhunu taşıyan genç Dora hızla kendine arkadaşlar bulur. En yakın arkadaşı olan maymun Boots, Diego ve bir grup ayaktakımı kısa sürede Dora'nın en yakın arkadaşı olur. Yeni arkadaş grubu, genç Dora'nın ailesini kurtarmak ve kayıp İnka uygarlığının arkasındaki tahmin edilemez gizemi çözmek için rengarenk bir maceraya atılırlar...

Dora ve Kayıp Altın Şehri (Dora and the Lost City of Gold) Filmi Imdb'den 12,000 kişi tarafından oylandı ve 6,0 puan aldı. Bu film için editör puanı 6,3 olarak belirlendi. İyi Seyirler!


Teknik Detaylar


Kod:
General
Complete name                            : Dora.ve.Kayıp.Altın.Şehri.2019.BRRip.XviD.TR.Filmbol.avi
Format                                   : AVI
Format/Info                              : Audio Video Interleave
File size                                : 1.24 GiB
Duration                                 : 1h 42mn
Overall bit rate                         : 1 737 Kbps

Video
ID                                       : 0
Format                                   : MPEG-4 Visual
Format profile                           : Simple@L5
Format settings, BVOP                    : No
Format settings, QPel                    : No
Format settings, GMC                     : No warppoints
Format settings, Matrix                  : Default (H.263)
Codec ID                                 : XVID
Codec ID/Hint                            : XviD
Duration                                 : 1h 42mn
Bit rate                                 : 1 596 Kbps
Width                                    : 720 pixels
Height                                   : 400 pixels
Display aspect ratio                     : 16:9
Frame rate                               : 23.976 fps
Color space                              : YUV
Chroma subsampling                       : 4:2:0
Bit depth                                : 8 bits
Scan type                                : Progressive
Compression mode                         : Lossy
Bits/(Pixel*Frame)                       : 0.231
Stream size                              : 1.14 GiB (92%)
Writing library                          : Lavc58.35.100

Audio
ID                                       : 1
Format                                   : MPEG Audio
Format version                           : Version 1
Format profile                           : Layer 3
Mode                                     : Joint stereo
Mode extension                           : MS Stereo
Codec ID                                 : 55
Codec ID/Hint                            : MP3
Duration                                 : 1h 42mn
Bit rate mode                            : Constant
Bit rate                                 : 128 Kbps
Channel(s)                               : 2 channels
Sampling rate                            : 48.0 KHz
Compression mode                         : Lossy
Stream size                              : 93.8 MiB (7%)
Alignment                                : Aligned on interleaves
Interleave, duration                     : 24 ms (0.58 video frame)

Film Detayları


Dora ve Kayıp Altın Şehri

Dora ve Kayıp Altın Şehri

Dora ve Kayıp Altın Şehri


Film Fragmanı


Film Detayları

Brrip İndir



Uptobox ile indir

LetsUpload ile indir

Mega linki şuan da gizli. Kullanıma açmak için konuya yorum yapın ve ardından sayfayı yenileyin. Ayrıca bu linki açtığınızda reklamsız olarak erişebileceğinizi unutmayın.

Mega


Mediafire linki şuan da gizli. Kullanıma açmak için konuya yorum yapın ve ardından sayfayı yenileyin. Ayrıca bu linki açtığınızda reklamsız olarak erişebileceğinizi unutmayın.

Mediafire

 
Cevapla
#2
Teşekkürler BroserBros.İyi çalışmalar.
 
Cevapla
#3
ÇOCUKLARA İZLETECEM
 
Cevapla
  


Konu ile Alakalı Benzer Konular
Konular Yazar Yorumlar Okunma Son Yorum
Filmin Yayınlanma Tarihi: 2016 Leylekler (Storks) Türkçe Dublaj Brrip-Xvid İndir BroserBros 4 1,569 1 saat önce
Son Yorum: BroserBros
Filmin Yayınlanma Tarihi: 2018 Grinç (The Grinch) Türkçe Dublaj Brrip Xvid İndir BroserBros 3 201 2 saat önce
Son Yorum: abeleyth
Filmin Yayınlanma Tarihi: 2016 Kubo ve Sihirli Telleri (Kubo and the Two Strings) Türkçe Dublaj Brrip-Xvid İndir BroserBros 2 1,191 2 saat önce
Son Yorum: abeleyth
Filmin Yayınlanma Tarihi: 2016 Pete ve Ejderhası (Pete's Dragon) Türkçe Dublaj Brrip Xvid İndir BroserBros 1 884 09-12-2019, Saat: 00:55
Son Yorum: BroserBros
Filmin Yayınlanma Tarihi: 2016 Angry Birds (Kızgın Kuşlar) Türkçe Dublaj Brrip Xvid İndir BroserBros 1 2,938 08-12-2019, Saat: 22:48
Son Yorum: BroserBros

Hızlı Menü:


Browsing: 3 Ziyaretçi