Filmbol Forum Film İndir UHD - ULTRA HD - 4K v Dolittle (Dolittle) - 2020 - TR+ORG - UHD (4K)
Moderatör Alımları Başladı! Başvuru yapmak için tıklayın.
Filmbol Premium'da %50'e varan indirim fırsatı!
Dolittle (Dolittle) - 2020 - TR+ORG - UHD (4K)
BroserBros
Dolittle (Dolittle) - 2020 - TR+ORG - UHD (4K)
0
162
  • Derecelendirme: 0/5 - 0 oy
  • 1
  • 2
  • 3
  • 4
  • 5
Konuyu Okuyanlar:1 Ziyaretçi
Şuan Online!
Filmin Yayınlanma Tarihi: 2020 
Şuan Online!
BroserBros Kurucu Admin
*******
Admin

Vizyon Tarihi


17 Ocak 2020

imdb puanı


5,6 / 35,000

süre


101 dakika

Editör Puanı


6,2 / 10

Video Format: Mkv


Matroska (.MKV)

Ses Kodek: AC3


Audio Coding 3 (AC3)

sürüm


x265 | 4K | x265 UHD

Boyutlar


14,7 GB



 Dolittle



Dolittle bir doktordur ve karısını kaybetmiştir. Bu yüzden de dış dünya ile bağlantısı koparmış, evinde vakit geçirmektedir. Bir gün kraliçe hastalanır ve bunu tedavi edebilecek tek kişi Dolittle olduğu için, işe koyulmaya karar verir. Macera dolu bu yolculuğuna çırağı ve farklı türden hayvanlar eşlik eder...

Dolittle (2020) (Dolittle) Filmi Imdb'den 35,000 kişi tarafından oylandı ve 5,6 puan aldı. Bu film için editör puanı 6,2 olarak belirlendi. İyi Seyirler!

Teknik Detaylar

Kod :
General
Unique ID                                : 268183911586329003470131280046341287707 (0xC9C257B427BEA417AD4703F756BCEF1B)
Complete name                            : /root/Desktop/2/Dolittle.2020.4K.UHD.HDR.BluRay.x265.TR.ENG.Filmbol.mkv
Format                                  : Matroska
Format version                          : Version 4 / Version 2
File size                                : 14.7 GiB
Duration                                : 1h 41mn
Overall bit rate                        : 20.7 Mbps
Movie name                              : Dolittle - 2019 | Filmbol.org
Encoded date                            : UTC 2020-05-15 11:00:41
Writing application                      : mkvmerge v8.8.0 ('Wind at my back') 64bit
Writing library                          : libebml v1.3.3 + libmatroska v1.4.4

Video
ID                                      : 1
Format                                  : HEVC
Format/Info                              : High Efficiency Video Coding
Format profile                          : Main 10@L5.1@High
Codec ID                                : V_MPEGH/ISO/HEVC
Duration                                : 1h 41mn
Bit rate                                : 19.4 Mbps
Width                                    : 3 840 pixels
Height                                  : 2 076 pixels
Display aspect ratio                    : 1.85:1
Frame rate mode                          : Constant
Frame rate                              : 23.976 (24000/1001) fps
Color space                              : YUV
Chroma subsampling                      : 4:2:0
Bit depth                                : 10 bits
Bits/(Pixel*Frame)                      : 0.102
Stream size                              : 13.8 GiB (94%)
Title                                    : Filmbol.org
Writing library                          : x265 3.0_Au+10-74a8672ea4f7:[Windows][GCC 8.2.1][64 bit] 10bit
Encoding settings                        : cpuid=1111039 / frame-threads=6 / numa-pools=40 / wpp / no-pmode / no-pme / no-psnr / no-ssim / log-level=2 / input-csp=1 / input-res=3840x2076 / interlace=0 / total-frames=0 / level-idc=51 / high-tier=1 / uhd-bd=0 / ref=3 / no-allow-non-conformance / repeat-headers / annexb / aud / hrd / info / hash=0 / no-temporal-layers / no-open-gop / min-keyint=1 / keyint=24 / gop-lookahead=0 / bframes=4 / b-adapt=2 / b-pyramid / bframe-bias=0 / rc-lookahead=25 / lookahead-slices=4 / scenecut=40 / radl=0 / no-splice / no-intra-refresh / ctu=64 / min-cu-size=8 / no-rect / no-amp / max-tu-size=32 / tu-inter-depth=1 / tu-intra-depth=1 / limit-tu=0 / rdoq-level=0 / dynamic-rd=0.00 / no-ssim-rd / signhide / no-tskip / nr-intra=0 / nr-inter=0 / no-constrained-intra / strong-intra-smoothing / max-merge=2 / limit-refs=3 / no-limit-modes / me=1 / subme=2 / merange=57 / temporal-mvp / weightp / no-weightb / no-analyze-src-pics / deblock=0:0 / no-sao / no-sao-non-deblock / rd=3 / no-early-skip / rskip / no-fast-intra / no-tskip-fast / no-cu-lossless / no-b-intra / no-splitrd-skip / rdpenalty=0 / psy-rd=2.00 / psy-rdoq=0.00 / no-rd-refine / no-lossless / cbqpoffs=0 / crqpoffs=0 / rc=crf / crf=16.0 / qcomp=0.60 / qpstep=4 / stats-write=0 / stats-read=0 / vbv-maxrate=160000 / vbv-bufsize=160000 / vbv-init=0.9 / crf-max=0.0 / crf-min=0.0 / ipratio=1.40 / pbratio=1.30 / aq-mode=1 / aq-strength=1.00 / cutree / zone-count=0 / no-strict-cbr / qg-size=32 / no-rc-grain / qpmax=69 / qpmin=0 / no-const-vbv / sar=1 / overscan=0 / videoformat=5 / range=0 / colorprim=9 / transfer=16 / colormatrix=9 / chromaloc=1 / chromaloc-top=2 / chromaloc-bottom=2 / display-window=0 / master-display=G(13250,34500)B(7500,3000)R(34000,16000)WP(15635,16450)L(10000000,01) / max-cll=1000,258 / min-luma=0 / max-luma=1023 / log2-max-poc-lsb=8 / vui-timing-info / vui-hrd-info / slices=1 / opt-qp-pps / opt-ref-list-length-pps / no-multi-pass-opt-rps / scenecut-bias=0.05 / no-opt-cu-delta-qp / no-aq-motion / hdr / hdr-opt / no-dhdr10-opt / no-idr-recovery-sei / analysis-reuse-level=5 / scale-factor=0 / refine-intra=0 / refine-inter=0 / refine-mv=0 / refine-ctu-distortion=0 / no-limit-sao / ctu-info=0 / no-lowpass-dct / refine-analysis-type=160 / copy-pic=1 / max-ausize-factor=1.0 / no-dynamic-refine / no-single-sei / no-hevc-aq / no-svt / qp-adaptation-range=1.00
Default                                  : Yes
Forced                                  : No
Color range                              : Limited
Color primaries                          : BT.2020
Matrix coefficients                      : BT.2020 non-constant

Audio #1
ID                                      : 2
Format                                  : AC-3
Format/Info                              : Audio Coding 3
Mode extension                          : CM (complete main)
Format settings, Endianness              : Big
Codec ID                                : A_AC3
Duration                                : 1h 41mn
Bit rate mode                            : Constant
Bit rate                                : 640 Kbps
Channel(s)                              : 6 channels
Channel positions                        : Front: L C R, Side: L R, LFE
Sampling rate                            : 48.0 KHz
Frame rate                              : 31.250 fps (1536 spf)
Compression mode                        : Lossy
Stream size                              : 464 MiB (3%)
Title                                    : Filmbol.org
Language                                : Turkish
Default                                  : Yes
Forced                                  : No

Audio #2
ID                                      : 3
Format                                  : AC-3
Format/Info                              : Audio Coding 3
Mode extension                          : CM (complete main)
Format settings, Endianness              : Big
Codec ID                                : A_AC3
Duration                                : 1h 41mn
Bit rate mode                            : Constant
Bit rate                                : 640 Kbps
Channel(s)                              : 6 channels
Channel positions                        : Front: L C R, Side: L R, LFE
Sampling rate                            : 48.0 KHz
Frame rate                              : 31.250 fps (1536 spf)
Compression mode                        : Lossy
Stream size                              : 464 MiB (3%)
Title                                    : Filmbol.org
Language                                : English
Default                                  : No
Forced                                  : No

Text
ID                                      : 4
Format                                  : UTF-8
Codec ID                                : S_TEXT/UTF8
Codec ID/Info                            : UTF-8 Plain Text
Duration                                : 1h 32mn
Bit rate                                : 63 bps
Count of elements                        : 1398
Stream size                              : 42.7 KiB (0%)
Title                                    : Filmbol.org
Language                                : Turkish
Default                                  : No
Forced                                  : No

Film Detayları


 Dolittle

 Dolittle

 Dolittle


Film Fragmanı


Film Detayları

Uptobox ile indir

1Fichier ile indir

1Fichier'den İndiremiyor musun? Tıklayın!


Mega ile indir

Bunun için üzgünüz ancak, bu linke sadece premium üyeler erişebilir.

Filmbol Cloud



Konu ile Alakalı Benzer Konular
Konular Yazar Yorumlar Okunma Son Yorum
Filmin Yayınlanma Tarihi: 2020
Vahşetin Çağrısı (The Call of the Wild) - 2020 - TR+ORG - UHD (4K) - 10Bit-x265 BroserBros 0 230 05-08-2020, Saat: 20:47
Son Yorum: BroserBros
Filmin Yayınlanma Tarihi: 2020
Lanetli Çocuk 2 (Brahms: The Boy II) - 2020 - TR+ORG - UHD (4K) - 10Bit-x265 BroserBros 0 57 25-07-2020, Saat: 20:11
Son Yorum: BroserBros
  Görünmez Adam (The Invisible Man) - 2020 - TR+ORG - UHD - 4K - x264 BroserBros 0 141 01-07-2020, Saat: 20:32
Son Yorum: BroserBros
Filmin Yayınlanma Tarihi: 2020
Bad Boys: Her Zaman Çılgın (Bad Boys for Life) - 2020 - TR+ENG - UHD (4K) BroserBros 0 178 06-05-2020, Saat: 21:53
Son Yorum: BroserBros

Hızlı Menü: