Filmbol Forum Film İndir BRRip XviD v Dolemite Is My Name (2019) Türkçe Dublaj Brrip Xvid İndir
Filmbol'da moderatör olmak ister misiniz? Bizimle iletişime geçmek için tıklayın!
Dolemite Is My Name (2019) Türkçe Dublaj Brrip Xvid İndir
BroserBros
Dolemite Is My Name (2019) Türkçe Dublaj Brrip Xvid İndir
0
262
  • Derecelendirme: 0/5 - 0 oy
  • 1
  • 2
  • 3
  • 4
  • 5
Konuyu Okuyanlar:1 Ziyaretçi
Şuan Online!
Filmin Yayınlanma Tarihi: 2019 
Şuan Online!
BroserBros Kurucu Admin
*******
Admin

indirme türü


Bulut + Premium

Vizyon Tarihi


25 Ekim 2019

Boyutlar


1,60

diller


[TR]

altyazilar


KISIM [Eklenebilir]

Video Format: Avi


Audio Video Interleave (.AVI)

Video Detay


MPEG-4, 1792Kbps, 1,48GB

imdb puanı


7,4 / 10,0 / 12,000

süre


117 dakika

Ses Kodek: MP3


MPEG-1 Audio Layer III (MP3)

Ses Detay


128 Kbps, 2 Kanal, 108 Mb

Editör Puanı


7,0

Genislik Yukseklik


720-360

sürüm


h263 | Brrip Xvid




Dolemite Is My Name


Film Detayları

“Dolemite Is My Name” 1970’lerde kaydettiği Dolemite komedi albümleri ve 1975 yapımı “Dolemite” filmi ile tanınan komedyen ve oyuncu Rudy Ray Moore’un hayatına odaklanıyor. Muhabbet tellalı ve kenar mahalle kahramanı bir karaktere hayat veren oyuncu “The Human Tornado”, “The Monkey Hu$tle” ve “Petey Wheatstraw” filmlerinde de aynı karakter olarak boy gösterdi. Sevilen komedyen 2008 yılında hayatını kaybetti.

Dolemite Is My Name Filmi Imdb'den 12,000 kişi tarafından oylandı ve 7,4 puan aldı. Bu film için editör puanı 7,0 olarak belirlendi. İyi Seyirler!


Teknik Detaylar


Kod :
General
Complete name                            : Dolemite.Is.My.Name.2019.WEBRip.XviD.TR.Filmbol.avi
Format                                   : AVI
Format/Info                              : Audio Video Interleave
File size                                : 1.60 GiB
Duration                                 : 1h 58mn
Overall bit rate                         : 1 933 Kbps

Video
ID                                       : 0
Format                                   : MPEG-4 Visual
Format profile                           : Simple@L5
Format settings, BVOP                    : No
Format settings, QPel                    : No
Format settings, GMC                     : No warppoints
Format settings, Matrix                  : Default (H.263)
Codec ID                                 : XVID
Codec ID/Hint                            : XviD
Duration                                 : 1h 58mn
Bit rate                                 : 1 792 Kbps
Width                                    : 720 pixels
Height                                   : 360 pixels
Display aspect ratio                     : 2.000
Frame rate                               : 24.000 fps
Color space                              : YUV
Chroma subsampling                       : 4:2:0
Bit depth                                : 8 bits
Scan type                                : Progressive
Compression mode                         : Lossy
Bits/(Pixel*Frame)                       : 0.288
Stream size                              : 1.48 GiB (93%)
Writing library                          : Lavc58.1.100

Audio
ID                                       : 1
Format                                   : MPEG Audio
Format version                           : Version 1
Format profile                           : Layer 3
Mode                                     : Joint stereo
Mode extension                           : MS Stereo
Codec ID                                 : 55
Codec ID/Hint                            : MP3
Duration                                 : 1h 58mn
Bit rate mode                            : Constant
Bit rate                                 : 128 Kbps
Channel(s)                               : 2 channels
Sampling rate                            : 48.0 KHz
Compression mode                         : Lossy
Stream size                              : 108 MiB (7%)
Alignment                                : Aligned on interleaves
Interleave, duration                     : 24 ms (0.58 video frame)

Film Detayları


Dolemite Is My Name

Dolemite Is My Name

Dolemite Is My Name


Film Fragmanı


Film Detayları

Brrip İndir


Uptobox ile indir

LetsUpload ile indir

jpJX

Mega ile indir

MediaFire ile indir



Konu ile Alakalı Benzer Konular
Konular Yazar Yorumlar Okunma Son Yorum
Filmin Yayınlanma Tarihi: 2020
Deathstroke Şövalyeler ve Ejderhalar (Deathstroke Knights & Dragons: The Movie) - 2020 - TR - BRRip XviD BroserBros 0 47 23-11-2020, Saat: 18:30
Son Yorum: BroserBros
Filmin Yayınlanma Tarihi: 2019
15 Dakika Savaş (L'intervention) - 2019 - TR - BRRip XviD BroserBros 0 48 23-11-2020, Saat: 17:42
Son Yorum: BroserBros
Filmin Yayınlanma Tarihi: 2020
Sürprizli Gece (The Sleepover) - 2020 - TR - BRRip XviD BroserBros 0 49 23-11-2020, Saat: 16:18
Son Yorum: BroserBros
Filmin Yayınlanma Tarihi: 2020
Feride (Feride) - 2020 - TR - BRRip XviD BroserBros 0 39 22-11-2020, Saat: 17:58
Son Yorum: BroserBros
Filmin Yayınlanma Tarihi: 2019
Gel Babacığına (Come to Daddy) - 2019 - TR - BRRip XviD BroserBros 0 35 22-11-2020, Saat: 17:43
Son Yorum: BroserBros

Hızlı Menü: