Hoşgeldin, Ziyaretçi: Giriş Yap Üye Ol


stats
Adblock'u kapattıysanız tıklayın.
Hoşgeldiniz!
Filmbol'u tercih ettiğiniz için teşekkürler, ancak ablock kullanarak devam edemezsiniz.
Merak etmeyin. Heryerden ardı ardına çıkan reklamlar görmeyeceksiniz :)

Sadece site içi 1 reklam göreceksin ve bu site gezintini etkilemeyecek.
Konuyu Oyla:
  • Derecelendirme: 0/5 - 0 oy
  • 1
  • 2
  • 3
  • 4
  • 5
Title: Dolemite Is My Name (2019) Türkçe Dublaj BLURAY m1080P İndir
Gösterim Stili
#1
Filmin Yayınlanma Tarihi: 2019 

indirme türü


Bulut + Premium

vizyon tarihi


25 Ekim 2019

Boyutlar


1,96

diller


[TR]

altyazilar


KISIM [Eklenebilir]

Video Format: Mkv


Matroska (.MKV)

Video Detay


MPEG-4, 1989Kbps, 1,64GB

imdb puanı


7,4 / 10,0 / 12,000

süre


117 dakika

Ses Kodek: AC3


Audio Coding 3 (AC3)

Ses Detay


384 Kbps, 6 Kanal, 325 Mb

Editör Puanı


7,0

Genislik Yukseklik


1920-1080

sürüm


x264 | m1080P (NF-WEBDL)





Dolemite Is My Name


Film Detayları

“Dolemite Is My Name” 1970’lerde kaydettiği Dolemite komedi albümleri ve 1975 yapımı “Dolemite” filmi ile tanınan komedyen ve oyuncu Rudy Ray Moore’un hayatına odaklanıyor. Muhabbet tellalı ve kenar mahalle kahramanı bir karaktere hayat veren oyuncu “The Human Tornado”, “The Monkey Hu$tle” ve “Petey Wheatstraw” filmlerinde de aynı karakter olarak boy gösterdi. Sevilen komedyen 2008 yılında hayatını kaybetti.

Dolemite Is My Name Filmi Imdb'den 12,000 kişi tarafından oylandı ve 7,4 puan aldı. Bu film için editör puanı 7,0 olarak belirlendi. İyi Seyirler!


Teknik Detaylar


Kod:
General
Complete name                            : Dolemite.Is.My.Name.2019.m720p.NF.WEB-DL.x264.TR.Filmbol.mkv
Format                                   : Matroska
Format version                           : Version 4 / Version 2
File size                                : 1.36 GiB
Duration                                 : 1h 58mn
Overall bit rate                         : 1 647 Kbps
Movie name                               : Dolemite Is My Name (2019) - Filmbol.org
Encoded date                             : UTC 2019-11-03 23:43:04
Writing application                      : mkvmerge v35.0.0 ('All The Love In The World') 64-bit
Writing library                          : libebml v1.3.9 + libmatroska v1.5.2

Video
ID                                       : 1
Format                                   : AVC
Format/Info                              : Advanced Video Codec
Format profile                           : Main@L3.1
Format settings, CABAC                   : Yes
Format settings, ReFrames                : 2 frames
Codec ID                                 : V_MPEG4/ISO/AVC
Duration                                 : 1h 58mn
Bit rate                                 : 1 261 Kbps
Width                                    : 1 280 pixels
Height                                   : 720 pixels
Display aspect ratio                     : 16:9
Frame rate mode                          : Constant
Frame rate                               : 24.000 fps
Color space                              : YUV
Chroma subsampling                       : 4:2:0
Bit depth                                : 8 bits
Scan type                                : Progressive
Bits/(Pixel*Frame)                       : 0.057
Stream size                              : 1.04 GiB (77%)
Title                                    : m720P - Filmbol.org
Default                                  : Yes
Forced                                   : No

Audio
ID                                       : 2
Format                                   : AC-3
Format/Info                              : Audio Coding 3
Mode extension                           : CM (complete main)
Format settings, Endianness              : Big
Codec ID                                 : A_AC3
Duration                                 : 1h 58mn
Bit rate mode                            : Constant
Bit rate                                 : 384 Kbps
Channel(s)                               : 6 channels
Channel positions                        : Front: L C R, Side: L R, LFE
Sampling rate                            : 48.0 KHz
Frame rate                               : 31.250 fps (1536 spf)
Compression mode                         : Lossy
Stream size                              : 325 MiB (23%)
Title                                    : Türkçe - Filmbol.org
Language                                 : Turkish
Default                                  : Yes
Forced                                   : No

Text
ID                                       : 3
Format                                   : UTF-8
Codec ID                                 : S_TEXT/UTF8
Codec ID/Info                            : UTF-8 Plain Text
Duration                                 : 1h 54mn
Bit rate                                 : 4 bps
Count of elements                        : 103
Stream size                              : 3.50 KiB (0%)
Title                                    : KISIM
Language                                 : Turkish
Default                                  : Yes
Forced                                   : Yes

Film Detayları


Dolemite Is My Name

Dolemite Is My Name

Dolemite Is My Name


Film Fragmanı


Film Detayları

Mini 1080P İndir


Uptobox ile indir

LetsUpload ile indir

Dosya Upload ile indir

Mega linki şuan da gizli. Kullanıma açmak için konuya yorum yapın ve ardından sayfayı yenileyin. Ayrıca bu linki açtığınızda reklamsız olarak erişebileceğinizi unutmayın.

Mega


Mediafire linki şuan da gizli. Kullanıma açmak için konuya yorum yapın ve ardından sayfayı yenileyin. Ayrıca bu linki açtığınızda reklamsız olarak erişebileceğinizi unutmayın.

Mediafire


Google Drive linki şuan da gizli. Kullanıma açmak için konuya yorum yapın ve ardından sayfayı yenileyin. Ayrıca bu linki açtığınızda reklamsız olarak erişebileceğinizi unutmayın.

Google Drive

 
Cevapla
#2
SÜPER
 
Cevapla
#3
güzel
 
Cevapla
#4
teşekkürler
 
Cevapla
#5
evet iyi
 
Cevapla
  


Konu ile Alakalı Benzer Konular
Konular Yazar Yorumlar Okunma Son Yorum
Filmin Yayınlanma Tarihi: 2018 Çakallarla Dans 5 (2018) Yerli Film BLURAY m1080P İndir BroserBros 4 167 , Saat: 19:14
Son Yorum: bkayahan
Filmin Yayınlanma Tarihi: 2018 Her Şey Seninle Güzel (2018) Yerli Film BLURAY m1080P İndir BroserBros 1 134 13-11-2019, Saat: 21:01
Son Yorum: usatr06
  Çat Kapı Aşk (2019) Yerli Film BLURAY m1080P İndir BroserBros 1 137 11-11-2019, Saat: 15:41
Son Yorum: Aspirin46
Filmin Yayınlanma Tarihi: 2019 Isn't it Romantic (2019) Türkçe Dublaj BLURAY m1080P İndir BroserBros 1 164 06-10-2019, Saat: 17:40
Son Yorum: fatih2719
Filmin Yayınlanma Tarihi: 2018 Şipşak Aile (Instant Family) Türkçe Dublaj BLURAY m1080P İndir BroserBros 4 251 15-09-2019, Saat: 00:01
Son Yorum: kimsinsen

Hızlı Menü:


Browsing: 3 Ziyaretçi