Filmbol Forum Film İndir 1080P v Dolemite Is My Name (2019) Türkçe Dublaj BLURAY m1080P İndir
Dolemite Is My Name (2019) Türkçe Dublaj BLURAY m1080P İndir
BroserBros
Dolemite Is My Name (2019) Türkçe Dublaj BLURAY m1080P İndir
5
385
  • Derecelendirme: 1/5 - 1 oy
  • 1
  • 2
  • 3
  • 4
  • 5
Konuyu Okuyanlar:1 Ziyaretçi
Şuan Online!
Filmin Yayınlanma Tarihi: 2019 
Şuan Online!
BroserBros Kurucu Admin
*******
Admin

indirme türü


Bulut + Premium

Vizyon Tarihi


25 Ekim 2019

Boyutlar


1,96

diller


[TR]

altyazilar


KISIM [Eklenebilir]

Video Format: Mkv


Matroska (.MKV)

Video Detay


MPEG-4, 1989Kbps, 1,64GB

imdb puanı


7,4 / 10,0 / 12,000

süre


117 dakika

Ses Kodek: AC3


Audio Coding 3 (AC3)

Ses Detay


384 Kbps, 6 Kanal, 325 Mb

Editör Puanı


7,0

Genislik Yukseklik


1920-1080

sürüm


x264 | 1080P (NF-WEBDL)




Dolemite Is My Name


Film Detayları

“Dolemite Is My Name” 1970’lerde kaydettiği Dolemite komedi albümleri ve 1975 yapımı “Dolemite” filmi ile tanınan komedyen ve oyuncu Rudy Ray Moore’un hayatına odaklanıyor. Muhabbet tellalı ve kenar mahalle kahramanı bir karaktere hayat veren oyuncu “The Human Tornado”, “The Monkey Hu$tle” ve “Petey Wheatstraw” filmlerinde de aynı karakter olarak boy gösterdi. Sevilen komedyen 2008 yılında hayatını kaybetti.

Dolemite Is My Name Filmi Imdb'den 12,000 kişi tarafından oylandı ve 7,4 puan aldı. Bu film için editör puanı 7,0 olarak belirlendi. İyi Seyirler!


Teknik Detaylar


Kod :
General
Complete name                            : Dolemite.Is.My.Name.2019.m720p.NF.WEB-DL.x264.TR.Filmbol.mkv
Format                                   : Matroska
Format version                           : Version 4 / Version 2
File size                                : 1.36 GiB
Duration                                 : 1h 58mn
Overall bit rate                         : 1 647 Kbps
Movie name                               : Dolemite Is My Name (2019) - Filmbol.org
Encoded date                             : UTC 2019-11-03 23:43:04
Writing application                      : mkvmerge v35.0.0 ('All The Love In The World') 64-bit
Writing library                          : libebml v1.3.9 + libmatroska v1.5.2

Video
ID                                       : 1
Format                                   : AVC
Format/Info                              : Advanced Video Codec
Format profile                           : Main@L3.1
Format settings, CABAC                   : Yes
Format settings, ReFrames                : 2 frames
Codec ID                                 : V_MPEG4/ISO/AVC
Duration                                 : 1h 58mn
Bit rate                                 : 1 261 Kbps
Width                                    : 1 280 pixels
Height                                   : 720 pixels
Display aspect ratio                     : 16:9
Frame rate mode                          : Constant
Frame rate                               : 24.000 fps
Color space                              : YUV
Chroma subsampling                       : 4:2:0
Bit depth                                : 8 bits
Scan type                                : Progressive
Bits/(Pixel*Frame)                       : 0.057
Stream size                              : 1.04 GiB (77%)
Title                                    : 720P - Filmbol.org
Default                                  : Yes
Forced                                   : No

Audio
ID                                       : 2
Format                                   : AC-3
Format/Info                              : Audio Coding 3
Mode extension                           : CM (complete main)
Format settings, Endianness              : Big
Codec ID                                 : A_AC3
Duration                                 : 1h 58mn
Bit rate mode                            : Constant
Bit rate                                 : 384 Kbps
Channel(s)                               : 6 channels
Channel positions                        : Front: L C R, Side: L R, LFE
Sampling rate                            : 48.0 KHz
Frame rate                               : 31.250 fps (1536 spf)
Compression mode                         : Lossy
Stream size                              : 325 MiB (23%)
Title                                    : Türkçe - Filmbol.org
Language                                 : Turkish
Default                                  : Yes
Forced                                   : No

Text
ID                                       : 3
Format                                   : UTF-8
Codec ID                                 : S_TEXT/UTF8
Codec ID/Info                            : UTF-8 Plain Text
Duration                                 : 1h 54mn
Bit rate                                 : 4 bps
Count of elements                        : 103
Stream size                              : 3.50 KiB (0%)
Title                                    : KISIM
Language                                 : Turkish
Default                                  : Yes
Forced                                   : Yes

Film Detayları


Dolemite Is My Name

Dolemite Is My Name

Dolemite Is My Name


Film Fragmanı


Film Detayları

Mini 1080P İndir


Uptobox ile indir

LetsUpload ile indir

jpJZ

Mega ile indir

MediaFire ile indir

Google Drive linki şuan da gizli. Kullanıma açmak için konuya yorum yapın ve ardından sayfayı yenileyin. Ayrıca bu linki açtığınızda reklamsız olarak erişebileceğinizi unutmayın.

Google Drive

Şuan Offine!
Şuan Offine!
Aspirin46 Süper Üye
***
Super Üye

  • Konular0
  • Mesajlar54
  • Rep puanı 0
SÜPER
Şuan Offine!
Şuan Offine!
c.ro Yeni Üye
*
Üye

  • Konular0
  • Mesajlar1
  • Rep puanı 0
güzel
Şuan Offine!
Şuan Offine!
eagle4791 Uzman Üye
**
Uzman Üye

  • Konular0
  • Mesajlar10
  • Rep puanı 0
teşekkürler
Şuan Online!
Şuan Online!
ahmetyee1 Süper Üye
***
Super Üye

  • Konular1
  • Mesajlar51
  • Rep puanı 0
evet iyi
Şuan Offine!
Şuan Offine!
geekmacro Yeni Üye
*
Üye

  • Konular0
  • Mesajlar4
  • Rep puanı 0
Gayet güzel


Konu ile Alakalı Benzer Konular
Konular Yazar Yorumlar Okunma Son Yorum
Filmin Yayınlanma Tarihi: 2019
Küçük (Little) - 2019 - TR+ORG - 1080P BroserBros 0 38 , Saat: 12:35
Son Yorum: BroserBros
Filmin Yayınlanma Tarihi: 2019
Blue Story (Mavi Öykü) - 2019 - TR+ORG - 1080P BroserBros 0 52 03-06-2020, Saat: 22:26
Son Yorum: BroserBros
Filmin Yayınlanma Tarihi: 2019
Queen & Slim (Queen ve Slim) - 2019 - TR+ORG - 1080P BroserBros 0 82 02-06-2020, Saat: 22:54
Son Yorum: BroserBros
Filmin Yayınlanma Tarihi: 2019
Altın Eldiven (The Golden Glove - Der Goldene Handschuh) - 2019 - TR+ORG - 1080P BroserBros 0 43 01-06-2020, Saat: 15:47
Son Yorum: BroserBros
Filmin Yayınlanma Tarihi: 2019
Kediler (Cats) - 2019 - TR+ORG - 1080P BroserBros 0 32 31-05-2020, Saat: 22:49
Son Yorum: BroserBros

Hızlı Menü: