Filmbol Forum Film İndir 720P v Doktor Uyku (Doctor Sleep) Türkçe Dublaj BLURAY 720P İndir
Mega linklerinin şikayet edilmemesi için global erişime kapatıp sadece yorum yapanlara açıyoruz. Bu linkleri gizleme işlemini mecburen yapıyoruz ve yorum yapmanızın siteye değil size faydası vardır. Teşekürler yazmayı çok görüp, Random/Spam mesajlar atarak Mega linklerini açmaya çalışan kullanıcılara önce süresiz ban, devam ederse IP ban atacağız.
Filmbol'da moderatör olmak ister misiniz? Bizimle iletişime geçmek için tıklayın!
Doktor Uyku (Doctor Sleep) Türkçe Dublaj BLURAY 720P İndir
BroserBros
Doktor Uyku (Doctor Sleep) Türkçe Dublaj BLURAY 720P İndir
0
280
  • Derecelendirme: 0/5 - 0 oy
  • 1
  • 2
  • 3
  • 4
  • 5
Konuyu Okuyanlar:1 Ziyaretçi
Şuan Online!
Filmin Yayınlanma Tarihi: 2019 
WWW
Şuan Online!
BroserBros Kurucu Admin
*******
Admin








 Doktor Uyku



Çocukluğunda yaşadıklarının karanlık gölgesi altında yaşayan Danny, travmalarıyla boğuşmaktan yorgun düşmüş ve alkole bağımlı hale gelmiştir. Babasının umutsuzluk, alkolizm ve şiddetli mirasından kurtulmak için çabalayıp duran Danny, New Hampshire kasabasında, onu ayakta tutan bir destek grubuyla yerleşir ve "parlama" gücü sayesinde ölenlerin son anlarında onlara huzur verebildiği bir bakım evi işine girer. Bu arada Amerika'nın dört bir yanındaki otoyollarda, True Knot adı verilen bir topluluğun üyeleri refah arayışında dolaşıp durmaktadır. Çoğunlukla zararsız ve yaşlı görünen bu grupla ilgili gerçek ise oldukça korkunçtur. Danny, kendisiyle benzer yeteneklere sahip bir kız olan Abra Stone ile psişik bağ kurduğunda, bu grubun yetenekli olanları hedef aldığını fark eder. Bu grup yetenek sahibi çocukların işkence gördükleri sırada çıkan "parıltılarının buharını" teneffüs ederek yarı ölümsüz hale gelmişlerdir. Gördüğü en yüksek psişik güce sahip olan Abra, Danny'i şeytanlarıyla yüzleştirecek ve kendi ruhu için bir savaşa sürükleyecektir...

Doktor Uyku (2019) (Doctor Sleep) Filmi Imdb'den 65,000 kişi tarafından oylandı ve 7,5 puan aldı. Bu film için editör puanı 6,9 olarak belirlendi. İyi Seyirler!

Teknik Detaylar

Kod :
General
Unique ID                                : 200042997173491640429764420203481214745 (0x967EE13D55A0661EE219D837E5352F19)
Complete name                            : /root/Desktop/4/Doktor.Uyku.2019.720p.BluRay.x264.TR.Filmbol.mkv
Format                                   : Matroska
Format version                           : Version 4 / Version 2
File size                                : 1.74 GiB
Duration                                 : 2h 32mn
Overall bit rate                         : 1 632 Kbps
Movie name                               : Doktor Uyku (2019) - Filmbol.org
Encoded date                             : UTC 2020-01-31 15:17:06
Writing application                      : mkvmerge v35.0.0 ('All The Love In The World') 64-bit
Writing library                          : libebml v1.3.9 + libmatroska v1.5.2

Video
ID                                       : 1
Format                                   : AVC
Format/Info                              : Advanced Video Codec
Format profile                           : [email protected]
Format settings, CABAC                   : Yes
Format settings, ReFrames                : 2 frames
Codec ID                                 : V_MPEG4/ISO/AVC
Duration                                 : 2h 32mn
Bit rate                                 : 1 252 Kbps
Width                                    : 1 280 pixels
Height                                   : 696 pixels
Display aspect ratio                     : 1.85:1
Frame rate mode                          : Constant
Frame rate                               : 23.976 (24000/1001) fps
Color space                              : YUV
Chroma subsampling                       : 4:2:0
Bit depth                                : 8 bits
Scan type                                : Progressive
Bits/(Pixel*Frame)                       : 0.059
Stream size                              : 1.33 GiB (76%)
Title                                    : 720P - Filmbol.org
Language                                 : English
Default                                  : Yes
Forced                                   : No

Audio
ID                                       : 2
Format                                   : AC-3
Format/Info                              : Audio Coding 3
Mode extension                           : CM (complete main)
Format settings, Endianness              : Big
Codec ID                                 : A_AC3
Duration                                 : 2h 32mn
Bit rate mode                            : Constant
Bit rate                                 : 384 Kbps
Channel(s)                               : 6 channels
Channel positions                        : Front: L C R, Side: L R, LFE
Sampling rate                            : 48.0 KHz
Frame rate                               : 31.250 fps (1536 spf)
Compression mode                         : Lossy
Stream size                              : 420 MiB (24%)
Title                                    : Türkçe - Filmbol.org
Language                                 : Turkish
Default                                  : Yes
Forced                                   : No

Film Detayları


 Doktor Uyku

 Doktor Uyku

 Doktor Uyku


Film Fragmanı


Film Detayları

Mini 720P İndir

Uptobox ile indir

1Fichier ile indir

1Fichier'den İndiremiyor musun? Tıklayın!


Mega linki şuan da gizli. Kullanıma açmak için konuya yorum yapın ve ardından sayfayı yenileyin.

Mega


MediaFire ile indir



Konu ile Alakalı Benzer Konular
Konular Yazar Yorumlar Okunma Son Yorum
Filmin Yayınlanma Tarihi: 2020
Her Zaman Şeytan (The Devil All the Time) - 2020 - TR+ORG - 720P | tt7395114 TheSteeL 0 32 , Saat: 21:36
Son Yorum: TheSteeL
Filmin Yayınlanma Tarihi: 2020
Baba Aranıyor (Se busca papá) - 2020 - TR+ORG - 720P | tt12721188 TheSteeL 0 32 , Saat: 21:12
Son Yorum: TheSteeL
Filmin Yayınlanma Tarihi: 2019
Beyaz Kentin Sessizliği (El silencio de la ciudad blanca) - 2019 - TR+ORG - 720P | tt8393332 BroserBros 1 257 , Saat: 15:38
Son Yorum: BroserBros
Filmin Yayınlanma Tarihi: 2019
Frankenstein: Ölümsüzlerin Savaşı (I, Frankenstein) - 2014 - TR+ORG - 720P | tt1418377 BroserBros 2 264 , Saat: 15:29
Son Yorum: BroserBros
Filmin Yayınlanma Tarihi: 2002
Akıl Oyunları (A Beautiful Mind) - 2001 - TR+ORG - 720P | tt0268978 BroserBros 1 249 , Saat: 15:12
Son Yorum: BroserBros

Hızlı Menü: