Hoşgeldin, Ziyaretçi: Giriş Yap Üye Ol


stats
Adblock'u kapattıysanız tıklayın.
Hoşgeldiniz!
Filmbol'u tercih ettiğiniz için teşekkürler, ancak ablock kullanarak devam edemezsiniz.
Merak etmeyin. Heryerden ardı ardına çıkan reklamlar görmeyeceksiniz :)

Sadece site içi 1 reklam göreceksin ve bu site gezintini etkilemeyecek.
Konuyu Oyla:
  • Derecelendirme: 0/5 - 0 oy
  • 1
  • 2
  • 3
  • 4
  • 5
Title: Doğu Ekspresinde Cinayet (Murder on the Orient Express) Türkçe Dublaj m720P İndir
Gösterim Stili
#1
Filmin Yayınlanma Tarihi: 2017 

indirme türü


Bulut + Premium

vizyon tarihi


10 Kasım 2017

Boyutlar


1,07

diller


[TR]

altyazilar


Yok [Eklenebilir]

Video Format: Mkv


Matroska (.MKV)

Video Detay


MPEG-4, 900Kbps, 0,73GB

süre


114 dakika

Ses Kodek: AC3


Audio Coding 3 (AC3)

Ses Detay


448 Kbps, 6 Kanal, 365Mb

rarsifresi


filmbol.org

Editör Puanı


6,7

Genislik Yukseklik


1280-534

sürüm


x264 | m720P



Film Detayları

Doğu Ekspresinde Cinayet (2017) Türkçe Dublaj Bluray Brrip-Xvid İndir | Kısa özet:
Hercule Poirot'un bir tren seyehati sırasında cinayet işlenir ve bu olayı çözmek için yine dedektif Hercule Poirot görevlendirilir. Bu karmaşık cinayeti çözmek ve suçluları yakalamak zorundadır ve bu o kadar da kolay olmayacaktır.
Doğu Ekspresinde Cinayet (Murder on the Orient Express) Filmi İmdb'den 175.000 kişi tarafından oylandı ve 6,5 puan aldı. Bu film için editör puanı 6,7 olarak belirlendi. İyi Seyirler!


Teknik Detaylar



Kod:
General
Complete name                            : Murder.On.The.Orient.Express.2017.m720P.BLURAY.x264.TR.Filmbol.mkv
Format                                   : Matroska
Format version                           : Version 4 / Version 2
File size                                : 1.07 GiB
Duration                                 : 1 h 53 min
Overall bit rate                         : 1 350 kb/s
Movie name                               : Murder on The Orient Express / m720P / Filmbol.org
Encoded date                             : UTC 2018-09-01 15:29:08
Writing application                      : mkvmerge v15.0.0 ('Duel with the Devil') 64-bit
Writing library                          : libebml v1.3.5 + libmatroska v1.4.7

Video
ID                                       : 1
Format                                   : AVC
Format/Info                              : Advanced Video Codec
Format profile                           : High@L4.1
Format settings                          : CABAC / 4 Ref Frames
Format settings, CABAC                   : Yes
Format settings, ReFrames                : 4 frames
Codec ID                                 : V_MPEG4/ISO/AVC
Duration                                 : 1 h 53 min
Bit rate                                 : 900 kb/s
Width                                    : 1 280 pixels
Height                                   : 534 pixels
Display aspect ratio                     : 2.40:1
Original display aspect ratio            : 2.40:1
Frame rate mode                          : Constant
Frame rate                               : 23.976 (24000/1001) FPS
Color space                              : YUV
Chroma subsampling                       : 4:2:0
Bit depth                                : 8 bits
Scan type                                : Progressive
Bits/(Pixel*Frame)                       : 0.055
Stream size                              : 733 MiB (67%)
Title                                    : m720P - Filmbol.org
Writing library                          : x264 core 152
Default                                  : Yes
Forced                                   : No

Audio
ID                                       : 2
Format                                   : AC-3
Format/Info                              : Audio Coding 3
Codec ID                                 : A_AC3
Duration                                 : 1 h 53 min
Bit rate mode                            : Constant
Bit rate                                 : 448 kb/s
Channel(s)                               : 6 channels
Channel positions                        : Front: L C R, Side: L R, LFE
Sampling rate                            : 48.0 kHz
Frame rate                               : 31.250 FPS (1536 SPF)
Bit depth                                : 16 bits
Compression mode                         : Lossy
Stream size                              : 365 MiB (33%)
Title                                    : Türkçe - Filmbol.org
Language                                 : Turkish
Service kind                             : Complete Main
Default                                  : Yes
Forced                                   : No



Film Detayları


Dogu Ekspresinde Cinayet

Dogu Ekspresinde Cinayet

Dogu Ekspresinde Cinayet

Dogu Ekspresinde Cinayet

Dogu Ekspresinde Cinayet


Film Fragmanı


Film Detayları

Mini 720P İndir


Turbobit İle İndir

Uptobox ile indir

Cloud Ru ile indir

Dosya Co ile indir

Dosya Upload ile indir

Mega ile indir

 
Cevapla
  


Hızlı Menü:


Browsing: 1 Ziyaretçi