Hoşgeldin, Ziyaretçi: Giriş Yap Üye Ol


stats
Adblock'u kapattıysanız tıklayın.
Hoşgeldiniz!
Filmbol'u tercih ettiğiniz için teşekkürler, ancak ablock kullanarak devam edemezsiniz.
Merak etmeyin. Heryerden ardı ardına çıkan reklamlar görmeyeceksiniz :)

Sadece site içi 1 reklam göreceksin ve bu site gezintini etkilemeyecek.
Konuyu Oyla:
  • Derecelendirme: 0/5 - 0 oy
  • 1
  • 2
  • 3
  • 4
  • 5
Title: Doğruyu Söyle (Concussion) Türkçe Dublaj m720P İndir
Gösterim Stili
#1
Filmin Yayınlanma Tarihi: 2015 

indirme türü


Bulut + Premium

vizyon tarihi


05 Şubat 2015

Boyutlar


1,01GB

diller


[TR]

altyazilar


Yok [Eklenebilir]

Video Format: Mkv


Matroska (.MKV)

Video Detay


MPEG-4, 949 Kbps, 0,81 GB

imdb puanı


7,1 / 10,0 / 60,000

süre


123 dakika

Ses Kodek: AC3


Audio Coding 3 (AC3)

Ses Detay


224 Kbps, 2 Kanal, 197 Mb

rarsifresi


filmbol.org

Editör Puanı


7,3

Genislik Yukseklik


1280x536

sürüm


x264 | 720P



Film Detayları

Yönetmen Peter Landesman Amerikan futboluna dair bir dram filmiyle karşımıza çıkıyor. Amerikan Futbolu oyuncularının yaşadıkları ciddi sakatlanmaların, kritik seviyedeki kafa yaralanmalarının ve travmalarının, yaşam boyu sakat bırakan beyin sakatlıklarının trajik boyutunu perdeye taşımayı hedefleyen Landesman, bir dergi haberinden yola çıkarak oluşturduğu öyküde, bu türden hasarların tekrarlanmasının, oyuncular ve onların yaşamlarını nasıl etkilediğini vurguluyor. Başrolde Will Smith'i izleyeceğimiz filmde ünlü aktöre Alec Baldwin, David Morse, Luke Wilson gibi önemli isimler eşlik ediyor.


Teknik Detaylar
Kod:
General
Format                                   : Matroska
Format version                           : Version 4 / Version 2
File size                                : 1.01 GiB
Duration                                 : 2h 2mn
Overall bit rate                         : 1 175 Kbps
Movie name                               : Concussion - Filmbol.rog

Video
ID                                       : 1
Format                                   : AVC
Format/Info                              : Advanced Video Codec
Format profile                           : High@L4.1
Format settings, CABAC                   : Yes
Format settings, ReFrames                : 5 frames
Codec ID                                 : V_MPEG4/ISO/AVC
Duration                                 : 2h 2mn
Bit rate                                 : 949 Kbps
Width                                    : 1 280 pixels
Height                                   : 536 pixels
Display aspect ratio                     : 2.40:1
Frame rate mode                          : Constant
Frame rate                               : 23.976 fps
Color space                              : YUV
Chroma subsampling                       : 4:2:0
Bit depth                                : 8 bits
Scan type                                : Progressive
Bits/(Pixel*Frame)                       : 0.058
Stream size                              : 814 MiB (79%)
Title                                    : 720P - Filmbol.org
Writing library                          : x264 core 148 r2638 7599210
Default                                  : Yes
Forced                                   : No
Color primaries                          : BT.709
Matrix coefficients                      : BT.709

Audio
ID                                       : 2
Format                                   : AC-3
Format/Info                              : Audio Coding 3
Mode extension                           : CM (complete main)
Format settings, Endianness              : Big
Codec ID                                 : A_AC3
Duration                                 : 2h 2mn
Bit rate mode                            : Constant
Bit rate                                 : 224 Kbps
Channel(s)                               : 2 channels
Channel positions                        : Front: L R
Sampling rate                            : 48.0 KHz
Bit depth                                : 16 bits
Compression mode                         : Lossy
Stream size                              : 197 MiB (19%)
Title                                    : Türkçe - Filmbol.org
Language                                 : Turkish
Default                                  : Yes
Forced                                   : No



Film Detayları


Concussion

Concussion

Concussion

Concussion

Concussion


Film Fragmanı


Film Detayları

Mini 720P İndir


Mega linki şuan da gizli. Kullanıma açmak için konuya yorum yapın ve ardından sayfayı yenileyin. Ayrıca bu linki açtığınızda reklamsız olarak erişebileceğinizi unutmayın.

Mega


Uptobox ile indir

 
Cevapla
#2
Güzel bir biyografi filmi
 
Cevapla
  


Hızlı Menü:


Browsing: 1 Ziyaretçi