Filmbol Forum Film İndir 720P v Deprem Kuşu (Earthquake Bird) Türkçe Dublaj BLURAY m720P İndir
Mega linklerinin şikayet edilmemesi için global erişime kapatıp sadece yorum yapanlara açıyoruz. Bu linkleri gizleme işlemini mecburen yapıyoruz ve yorum yapmanızın siteye değil size faydası vardır. Teşekürler yazmayı çok görüp, Random/Spam mesajlar atarak Mega linklerini açmaya çalışan kullanıcılara önce süresiz ban, devam ederse IP ban atacağız.
Filmbol'da moderatör olmak ister misiniz? Bizimle iletişime geçmek için tıklayın!
Deprem Kuşu (Earthquake Bird) Türkçe Dublaj BLURAY m720P İndir
BroserBros
Deprem Kuşu (Earthquake Bird) Türkçe Dublaj BLURAY m720P İndir
1
367
  • Derecelendirme: 0/5 - 0 oy
  • 1
  • 2
  • 3
  • 4
  • 5
Konuyu Okuyanlar:1 Ziyaretçi
Şuan Online!
Filmin Yayınlanma Tarihi: 2019 
WWW
Şuan Online!
BroserBros Kurucu Admin
*******
Admin





Ses Kodek: AC3


Audio Coding 3 (AC3)






Deprem Kusu



Teknik Detaylar


Kod :
General
Complete name                            : Earthquake.Bird.2019.m720p.NF.WEB-DL.x264.TR.Filmbol.mkv
Format                                   : Matroska
Format version                           : Version 4 / Version 2
File size                                : 1.13 GiB
Duration                                 : 1h 46mn
Overall bit rate                         : 1 516 Kbps
Movie name                               : Earthquake Bird (2019) - Filmbol.org
Encoded date                             : UTC 2019-11-22 01:02:53
Writing application                      : mkvmerge v35.0.0 ('All The Love In The World') 64-bit
Writing library                          : libebml v1.3.9 + libmatroska v1.5.2

Video
ID                                       : 1
Format                                   : AVC
Format/Info                              : Advanced Video Codec
Format profile                           : [email protected]
Format settings, CABAC                   : Yes
Format settings, ReFrames                : 2 frames
Codec ID                                 : V_MPEG4/ISO/AVC
Duration                                 : 1h 46mn
Bit rate                                 : 1 130 Kbps
Width                                    : 1 280 pixels
Height                                   : 720 pixels
Display aspect ratio                     : 16:9
Frame rate mode                          : Constant
Frame rate                               : 24.000 fps
Color space                              : YUV
Chroma subsampling                       : 4:2:0
Bit depth                                : 8 bits
Scan type                                : Progressive
Bits/(Pixel*Frame)                       : 0.051
Stream size                              : 863 MiB (75%)
Title                                    : 720P - Filmbol.org
Default                                  : Yes
Forced                                   : No

Audio
ID                                       : 2
Format                                   : AC-3
Format/Info                              : Audio Coding 3
Mode extension                           : CM (complete main)
Format settings, Endianness              : Big
Codec ID                                 : A_AC3
Duration                                 : 1h 46mn
Bit rate mode                            : Constant
Bit rate                                 : 384 Kbps
Channel(s)                               : 6 channels
Channel positions                        : Front: L C R, Side: L R, LFE
Sampling rate                            : 48.0 KHz
Frame rate                               : 31.250 fps (1536 spf)
Compression mode                         : Lossy
Stream size                              : 293 MiB (25%)
Title                                    : Türkçe - Filmbol.org
Language                                 : Turkish
Default                                  : Yes
Forced                                   : No

Text
ID                                       : 3
Format                                   : UTF-8
Codec ID                                 : S_TEXT/UTF8
Codec ID/Info                            : UTF-8 Plain Text
Duration                                 : 1h 45mn
Bit rate                                 : 8 bps
Count of elements                        : 262
Stream size                              : 6.38 KiB (0%)
Title                                    : KISIM
Language                                 : Turkish
Default                                  : Yes
Forced                                   : Yes

Film Detayları


Deprem Kusu

Deprem Kusu

Deprem Kusu


Film Fragmanı


Film Detayları

Mini 720P İndir



Uptobox ile indir

Mega linki şuan da gizli. Kullanıma açmak için konuya yorum yapın ve ardından sayfayı yenileyin.

Mega


MediaFire ile indir

Şuan Offine!
Şuan Offine!
Arif DEĞERCAN Süper Üye
***
Super Üye

  • Konular0
  • Mesajlar33
  • Rep puanı 0
Daha iki gün önce fragmanını izledim burada karşıma çıkıyor çok ilginç.. (Yani mükemmel bir hız)


Konu ile Alakalı Benzer Konular
Konular Yazar Yorumlar Okunma Son Yorum
Filmin Yayınlanma Tarihi: 2019
Godzilla 2: Canavarlar Kralı (King of the Monsters) Türkçe Dublaj BLURAY m720P İndir BroserBros 15 1,693 5 saat önce
Son Yorum: OsmanSKMN
Filmin Yayınlanma Tarihi: 2018
Venom: Zehirli Öfke (2018) Türkçe Dublaj Bluray m720P İndir BroserBros 16 2,416 27-02-2021, Saat: 19:14
Son Yorum: Strange
Filmin Yayınlanma Tarihi: 2019
Alev Kapanı 2 (Backdraft 2) Türkçe Dublaj BLURAY 720P indir BroserBros 1 204 27-02-2021, Saat: 13:17
Son Yorum: BroserBros
Filmin Yayınlanma Tarihi: 2019
Büyükbabalar Yuvada (Grand-Daddy Day Care) Türkçe Dublaj BLURAY 720P indir BroserBros 1 233 27-02-2021, Saat: 13:11
Son Yorum: BroserBros
Filmin Yayınlanma Tarihi: 2018
Kediler (Cats and Peachtopia) Türkçe Dublaj BLURAY 720P indir BroserBros 1 212 27-02-2021, Saat: 13:04
Son Yorum: BroserBros

Hızlı Menü: