Filmbol Forum Film İndir 1080P v Deprem Kuşu (Earthquake Bird) Türkçe Dublaj BLURAY m1080P İndir
Filmbol'da moderatör olmak ister misiniz? Bizimle iletişime geçmek için tıklayın!
Deprem Kuşu (Earthquake Bird) Türkçe Dublaj BLURAY m1080P İndir
BroserBros
Deprem Kuşu (Earthquake Bird) Türkçe Dublaj BLURAY m1080P İndir
3
389
  • Derecelendirme: 0/5 - 0 oy
  • 1
  • 2
  • 3
  • 4
  • 5
Konuyu Okuyanlar:1 Ziyaretçi
Şuan Online!
Filmin Yayınlanma Tarihi: 2019 
Şuan Online!
BroserBros Kurucu Admin
*******
Admin

indirme türü


Bulut + Premium

Vizyon Tarihi


15 Kasım 2019

Boyutlar


1,88

diller


[TR]

altyazilar


KISIM [Eklenebilir]

Video Format: Mkv


Matroska (.MKV)

Video Detay


MPEG-4, 2136 Kbps, 1,59GB

imdb puanı


4,9 / 10,0 / 5,000

süre


107 dakika

Ses Kodek: AC3


Audio Coding 3 (AC3)

Ses Detay


384 Kbps, 6 Kanal, 293Mb

Editör Puanı


5,0

Genislik Yukseklik


1920-1080

sürüm


x264 | 1080Pd




Deprem Kusu


Film Detayları

Deprem Kuşu, arkadaşının kaybolması ile kendisini büyük bir girdabın içinde bulan genç bir kadının hikayesini konu ediyor. Lucy Fly, Tokyo'da yaşayan genç bir kadındır. Sorunlu bir yaşamı olan Lucy, gönlünü yakışıklı bir fotoğrafçı olan Teiji'ye kaptırır. Lucy ve kendisi gibi sorunlu olan Teiji arasında çok geçmeden yoğun bir ilişki yaşanmaya başlar. Bu sırada Lucy, eğlenmek için gittiği bir barda Lily adında bir kadın ile tanışır. Kısa sürede yakın arkadaş olan Lucy ve Lily, zamanlarının çoğunu birlikte geçirmeye başlar. Ancak bir gün Lily'nin ortadan kaybolması işlerin karışmasına neden olur. Lily'nin kaybolmasıyla soğukkanlılığını kaybetmeye başlayan Lucy, polisler tarafından sorgulanmaya başlar. Üstelik polisler Lily'nin öldüğünden şüphelenmektedir.

Deprem Kuşu (Earthquake Bird) Filmi Imdb'den 5,000 kişi tarafından oylandı ve 4,9 puan aldı. Bu film için editör puanı 5,0 olarak belirlendi. İyi Seyirler!


Teknik Detaylar


Kod :
General
Complete name                            : Earthquake.Bird.2019.m1080p.NF.WEB-DL.x264.TR.Filmbol.mkv
Format                                   : Matroska
Format version                           : Version 4 / Version 2
File size                                : 1.88 GiB
Duration                                 : 1h 46mn
Overall bit rate                         : 2 522 Kbps
Movie name                               : Earthquake Bird (2019) - Filmbol.org
Encoded date                             : UTC 2019-11-23 01:29:13
Writing application                      : mkvmerge v35.0.0 ('All The Love In The World') 64-bit
Writing library                          : libebml v1.3.9 + libmatroska v1.5.2

Video
ID                                       : 1
Format                                   : AVC
Format/Info                              : Advanced Video Codec
Format profile                           : Main@L4
Format settings, CABAC                   : Yes
Format settings, ReFrames                : 2 frames
Codec ID                                 : V_MPEG4/ISO/AVC
Duration                                 : 1h 46mn
Bit rate                                 : 2 136 Kbps
Width                                    : 1 920 pixels
Height                                   : 1 080 pixels
Display aspect ratio                     : 16:9
Frame rate mode                          : Constant
Frame rate                               : 24.000 fps
Color space                              : YUV
Chroma subsampling                       : 4:2:0
Bit depth                                : 8 bits
Scan type                                : Progressive
Bits/(Pixel*Frame)                       : 0.043
Stream size                              : 1.59 GiB (85%)
Title                                    : 1080P - Filmbol.org
Default                                  : Yes
Forced                                   : No

Audio
ID                                       : 2
Format                                   : AC-3
Format/Info                              : Audio Coding 3
Mode extension                           : CM (complete main)
Format settings, Endianness              : Big
Codec ID                                 : A_AC3
Duration                                 : 1h 46mn
Bit rate mode                            : Constant
Bit rate                                 : 384 Kbps
Channel(s)                               : 6 channels
Channel positions                        : Front: L C R, Side: L R, LFE
Sampling rate                            : 48.0 KHz
Frame rate                               : 31.250 fps (1536 spf)
Compression mode                         : Lossy
Stream size                              : 293 MiB (15%)
Title                                    : Türkçe - Filmbol.org
Language                                 : Turkish
Default                                  : Yes
Forced                                   : No

Text
ID                                       : 3
Format                                   : UTF-8
Codec ID                                 : S_TEXT/UTF8
Codec ID/Info                            : UTF-8 Plain Text
Duration                                 : 1h 45mn
Bit rate                                 : 8 bps
Count of elements                        : 262
Stream size                              : 6.38 KiB (0%)
Title                                    : KISIM
Language                                 : Turkish
Default                                  : Yes
Forced                                   : Yes

Film Detayları


Deprem Kusu

Deprem Kusu

Deprem Kusu


Film Fragmanı


Film Detayları

Mini 1080P İndir



Uptobox ile indir

LetsUpload ile indir

Mega ile indir

MediaFire ile indir

Google Drive linki şuan da gizli. Kullanıma açmak için konuya yorum yapın ve ardından sayfayı yenileyin. Ayrıca bu linki açtığınızda reklamsız olarak erişebileceğinizi unutmayın.

Google Drive

Şuan Offine!
Şuan Offine!
Amireal Yeni Üye
*
Üye

  • Konular0
  • Mesajlar2
  • Rep puanı 0
Güzel film
Şuan Offine!
Şuan Offine!
atil72 Yeni Üye
*
Üye

  • Konular0
  • Mesajlar3
  • Rep puanı 0
Güzelli ?
Şuan Offine!
Şuan Offine!
emirhzn Yeni Üye
*
Üye

  • Konular0
  • Mesajlar3
  • Rep puanı 0
güzel


Konu ile Alakalı Benzer Konular
Konular Yazar Yorumlar Okunma Son Yorum
Filmin Yayınlanma Tarihi: 2019
Tolkien (2019) Türkçe Dublaj BLURAY m1080P İndir BroserBros 4 427 9 saat önce
Son Yorum: Rocklion17
Filmin Yayınlanma Tarihi: 2019
Ralph ve İnternet (Ralph Breaks the Internet) Türkçe Dublaj BLURAY m1080P İndir BroserBros 15 1,098 21-11-2020, Saat: 18:10
Son Yorum: miyaavc
Filmin Yayınlanma Tarihi: 2018
Venom: Zehirli Öfke (2018) Türkçe Dublaj Bluray m1080P İndir DRMOV 43 4,151 19-11-2020, Saat: 22:42
Son Yorum: Cyberboi84
Filmin Yayınlanma Tarihi: 2007
Harry Potter ve Zümrüdüanka Yoldaşlığı (2007) Türkçe Dublaj BLURAY m1080P İndir BroserBros 16 1,217 17-11-2020, Saat: 18:33
Son Yorum: bllsr
Filmin Yayınlanma Tarihi: 2005
Harry Potter ve Ateş Kadehi (Goblet of Fire) Türkçe Dublaj BLURAY 1080P İndir BroserBros 27 2,374 17-11-2020, Saat: 12:17
Son Yorum: bllsr

Hızlı Menü: