Filmbol Forum Film İndir BRRip XviD v Deniz Feneri (The Lighthouse) - 2019 - TR - BRRip XviD
Moderatör Alımları Başladı! Başvuru yapmak için tıklayın.
Filmbol Premium'da %50'e varan indirim fırsatı!
Deniz Feneri (The Lighthouse) - 2019 - TR - BRRip XviD
BroserBros
Deniz Feneri (The Lighthouse) - 2019 - TR - BRRip XviD
0
165
  • Derecelendirme: 0/5 - 0 oy
  • 1
  • 2
  • 3
  • 4
  • 5
Konuyu Okuyanlar:1 Ziyaretçi
Şuan Offine!
Filmin Yayınlanma Tarihi: 2019 
Şuan Offine!
BroserBros Kurucu Admin
*******
Admin

Vizyon Tarihi


25 Ekim 2019

imdb puanı


7,6 / 95,000

süre


109 dakika

Editör Puanı


7,2 / 10

Video Format: Avi


Audio Video Interleave (.AVI)

Ses Kodek: MP3


MPEG-1 Audio Layer III (MP3)

sürüm


h263 | BRRip XviD

Boyutlar


0,99 GB



 Deniz Feneri



The Lighthouse, 20. yüzyılın başlarında Maine'de yaşayan, iki deniz feneri bekçisinin hikayesini konu ediyor. Eski bir denizci olan Thomas Wake, gizemli bir adada deniz feneri bekçiliği yapan bir adamdır. Yıllardır adada tek başına bekçilik yapan Thomas’ın yanına, işlerde yardımcı olması için Ephraim Winslow adında bir genç gönderilir. Birlikte çalışmaya başlayan Thomas ve Ephraim arasında çok geçmeden büyük bir iktidar savaşı meydana gelir. Yaptığı işi büyük bir sorumlulukla yerine getiren Thomas, gücünü ispatlamak için tecrübesiz bir genç olan Ephraim üzerinde baskı kurmaya başlar. Ufak bir adada deniz fenerinin içinde hapsolan ve zamanla akıl sağlığını kaybetmeye başlayan iki adam, en derin korkuları ile yüzleşmek zorunda kalır

Deniz Feneri (2019) (The Lighthouse) Filmi Imdb'den 95,000 kişi tarafından oylandı ve 7,6 puan aldı. Bu film için editör puanı 7,2 olarak belirlendi. İyi Seyirler!

Teknik Detaylar

Kod :
General
Complete name                            : /root/Desktop/4/Deniz.Feneri.2019.BRRip.XviD.TR.Filmbol.avi
Format                                  : AVI
Format/Info                              : Audio Video Interleave
File size                                : 990 MiB
Duration                                : 1h 49mn
Overall bit rate                        : 1 268 Kbps

Video
ID                                      : 0
Format                                  : MPEG-4 Visual
Format profile                          : Simple@L5
Format settings, BVOP                    : No
Format settings, QPel                    : No
Format settings, GMC                    : No warppoints
Format settings, Matrix                  : Default (H.263)
Codec ID                                : XVID
Codec ID/Hint                            : XviD
Duration                                : 1h 49mn
Bit rate                                : 1 127 Kbps
Width                                    : 480 pixels
Height                                  : 400 pixels
Display aspect ratio                    : 1.200
Frame rate                              : 23.976 fps
Color space                              : YUV
Chroma subsampling                      : 4:2:0
Bit depth                                : 8 bits
Scan type                                : Progressive
Compression mode                        : Lossy
Bits/(Pixel*Frame)                      : 0.245
Stream size                              : 880 MiB (89%)
Writing library                          : Lavc58.35.100

Audio
ID                                      : 1
Format                                  : MPEG Audio
Format version                          : Version 1
Format profile                          : Layer 3
Mode                                    : Joint stereo
Mode extension                          : MS Stereo
Codec ID                                : 55
Codec ID/Hint                            : MP3
Duration                                : 1h 49mn
Bit rate mode                            : Constant
Bit rate                                : 128 Kbps
Channel(s)                              : 2 channels
Sampling rate                            : 48.0 KHz
Compression mode                        : Lossy
Stream size                              : 99.9 MiB (10%)
Alignment                                : Aligned on interleaves
Interleave, duration                    : 24 ms (0.58 video frame)

Film Detayları


 Deniz Feneri

 Deniz Feneri

 Deniz Feneri


Film Fragmanı


Film Detayları


Uptobox ile indir

1Fichier ile indir

1Fichier'den İndiremiyor musun? Tıklayın!


Mega ile indir

Bunun için üzgünüz ancak, bu linke sadece premium üyeler erişebilir.

Filmbol Cloud



Konu ile Alakalı Benzer Konular
Konular Yazar Yorumlar Okunma Son Yorum
Filmin Yayınlanma Tarihi: 2014
Lucy (2014) Türkçe Dublaj BRRip XviD İndir BroserBros 1 255 19-09-2020, Saat: 00:56
Son Yorum: sectechno
Filmin Yayınlanma Tarihi: 2020
The Hunt (Av) - 2020 - TR - BRRip XviD BroserBros 0 177 18-09-2020, Saat: 19:28
Son Yorum: BroserBros
Filmin Yayınlanma Tarihi: 2018
Gözbebeğim (Pupille) - 2018 - TR - BRRip XviD BroserBros 0 177 18-09-2020, Saat: 13:02
Son Yorum: BroserBros
Filmin Yayınlanma Tarihi: 2019
Umut Vadisi (Hope Gap) - 2019 - TR - BRRip XviD BroserBros 0 177 18-09-2020, Saat: 12:50
Son Yorum: BroserBros
Filmin Yayınlanma Tarihi: 2019
Cep Herkülü: Naim Süleymanoğlu (Cep Herkülü: Naim Süleymanoğlu) - 2019 - TR - BRRip XviD BroserBros 0 108 15-09-2020, Saat: 21:51
Son Yorum: BroserBros

Hızlı Menü: