Filmbol Forum Film İndir 720P v Dehşetin Yüzü (The Nun) Türkçe Dublaj BLURAY 720P İndir
Mega linklerinin şikayet edilmemesi için global erişime kapatıp sadece yorum yapanlara açıyoruz. Bu linkleri gizleme işlemini mecburen yapıyoruz ve yorum yapmanızın siteye değil size faydası vardır. Teşekürler yazmayı çok görüp, Random/Spam mesajlar atarak Mega linklerini açmaya çalışan kullanıcılara önce süresiz ban, devam ederse IP ban atacağız.
Filmbol'da moderatör olmak ister misiniz? Bizimle iletişime geçmek için tıklayın!
Dehşetin Yüzü (The Nun) Türkçe Dublaj BLURAY 720P İndir
BroserBros
Dehşetin Yüzü (The Nun) Türkçe Dublaj BLURAY 720P İndir
1
447
  • Derecelendirme: 0/5 - 0 oy
  • 1
  • 2
  • 3
  • 4
  • 5
Konuyu Okuyanlar:1 Ziyaretçi
Şuan Online!
Filmin Yayınlanma Tarihi: 2018 
WWW
Şuan Online!
BroserBros Kurucu Admin
*******
Admin





Ses Kodek: AC3


Audio Coding 3 (AC3)






Dehşetin Yüzü



Teknik Detaylar


Kod :
General
Complete name                            : Dehşetin.Yüzü.2018.720p.BLURAY.x264.TR.Filmbol.mkv
Format                                   : Matroska
Format version                           : Version 4 / Version 2
File size                                : 992 MiB
Duration                                 : 1h 36mn
Overall bit rate                         : 1 436 Kbps
Movie name                               : Dehşetin Yüzü (2018) - Filmbol.org
Encoded date                             : UTC 2019-12-20 04:25:12
Writing application                      : mkvmerge v35.0.0 ('All The Love In The World') 64-bit
Writing library                          : libebml v1.3.9 + libmatroska v1.5.2

Video
ID                                       : 1
Format                                   : AVC
Format/Info                              : Advanced Video Codec
Format profile                           : [email protected]
Format settings, CABAC                   : Yes
Format settings, ReFrames                : 4 frames
Codec ID                                 : V_MPEG4/ISO/AVC
Duration                                 : 1h 36mn
Bit rate                                 : 1 050 Kbps
Width                                    : 1 280 pixels
Height                                   : 534 pixels
Display aspect ratio                     : 2.40:1
Original display aspect ratio            : 2.40:1
Frame rate mode                          : Constant
Frame rate                               : 23.976 (24000/1001) fps
Color space                              : YUV
Chroma subsampling                       : 4:2:0
Bit depth                                : 8 bits
Scan type                                : Progressive
Bits/(Pixel*Frame)                       : 0.064
Stream size                              : 725 MiB (73%)
Title                                    : 720P - Filmbol.org
Writing library                          : x264 core 157
Default                                  : Yes
Forced                                   : No

Audio
ID                                       : 2
Format                                   : AC-3
Format/Info                              : Audio Coding 3
Mode extension                           : CM (complete main)
Format settings, Endianness              : Big
Codec ID                                 : A_AC3
Duration                                 : 1h 36mn
Bit rate mode                            : Constant
Bit rate                                 : 384 Kbps
Channel(s)                               : 6 channels
Channel positions                        : Front: L C R, Side: L R, LFE
Sampling rate                            : 48.0 KHz
Frame rate                               : 31.250 fps (1536 spf)
Compression mode                         : Lossy
Stream size                              : 265 MiB (27%)
Title                                    : Türkçe - Filmbol.org
Language                                 : Turkish
Default                                  : Yes
Forced                                   : No

Text
ID                                       : 3
Format                                   : UTF-8
Codec ID                                 : S_TEXT/UTF8
Codec ID/Info                            : UTF-8 Plain Text
Duration                                 : 1h 35mn
Bit rate                                 : 0 bps
Count of elements                        : 19
Stream size                              : 365 Bytes (0%)
Title                                    : KISIM
Language                                 : Turkish
Default                                  : Yes
Forced                                   : No

Film Detayları


Dehşetin Yüzü

Dehşetin Yüzü

Dehşetin Yüzü


Film Fragmanı


Film Detayları

Mini 720P İndir



Uptobox ile indir

1Fichier ile indir

1Fichier'den İndiremiyor musun? Tıklayın!


Mega linki şuan da gizli. Kullanıma açmak için konuya yorum yapın ve ardından sayfayı yenileyin.

Mega


MediaFire ile indir

Şuan Offine!
Şuan Offine!
BqRs Uzman Üye
**
Uzman Üye

  • Konular0
  • Mesajlar8
  • Rep puanı 0
teşekkürler ne kadardır arıyordum


Konu ile Alakalı Benzer Konular
Konular Yazar Yorumlar Okunma Son Yorum
Filmin Yayınlanma Tarihi: 1999
Dövüş Kulübü (Fight Club) - 1999 - TR+ORG - 720P | tt0137523 BroserBros 1 377 1 saat önce
Son Yorum: BroserBros
Filmin Yayınlanma Tarihi: 2018
Benim Adım Bolt (I Am Bolt) - 2016 - TR+ORG - 720P | tt4647900 BroserBros 2 331 1 saat önce
Son Yorum: BroserBros
Filmin Yayınlanma Tarihi: 2018
urtiz (Curtiz) - 2018 - TR+ORG - 720P | tt6774588 BroserBros 1 250 1 saat önce
Son Yorum: BroserBros
Filmin Yayınlanma Tarihi: 2019
Bir Köpeğin Fantastik Hikayesi (L'extraordinaire voyage de Marona) - 2019 - TR+ORG - 720P | tt6785292 TheSteeL 0 3 2 saat önce
Son Yorum: TheSteeL
Filmin Yayınlanma Tarihi: 2019
The Jesus Rolls: Quintana Dönüyor (The Jesus Rolls) - 2019 - TR+ORG - 720P | tt5974030 TheSteeL 0 3 2 saat önce
Son Yorum: TheSteeL

Hızlı Menü: