Filmbol Forum Film İndir 720P v Deathstroke Şövalyeler ve Ejderhalar (Deathstroke Knights & Dragons: The Movie) - 2020 - TR+ORG - 720P
Filmbol'da moderatör olmak ister misiniz? Bizimle iletişime geçmek için tıklayın!
21.12.2020 tarihinden itibaren yayınlanacak olan filmlerde 4K ve FHD sürümleri sadece premium üyelere açık olarak paylaşılacaktır. Diğer (XviD, 720P, 1080P, 3D) sürümleri normal üyeler sorunsuzca kullanmaya devam edebilecektir.
Deathstroke Şövalyeler ve Ejderhalar (Deathstroke Knights & Dragons: The Movie) - 2020 - TR+ORG - 720P
BroserBros
Deathstroke Şövalyeler ve Ejderhalar (Deathstroke Knights & Dragons: The Movie) - 2020 - TR+ORG - 720P
0
99
  • Derecelendirme: 0/5 - 0 oy
  • 1
  • 2
  • 3
  • 4
  • 5
Konuyu Okuyanlar:1 Ziyaretçi
Şuan Online!
Filmin Yayınlanma Tarihi: 2020 
Şuan Online!
BroserBros Kurucu Admin
*******
Admin

Vizyon Tarihi


04 Ağustos 2020

imdb puanı


6,4 / 2,000

süre


87 dakika

Editör Puanı


5,5 / 10

Video Format: Mkv


Matroska (.MKV)

Ses Kodek: AC3


Audio Coding 3 (AC3)

sürüm


x264 | 720P | BluRay

Boyutlar


0,96 GB



 Deathstroke Şövalyeler ve Ejderhalar



Deathstroke ailesi bir cani tarafından katledilmiş savaşcıdır. Aradan on yıl geçmiş ve Deathstroke şimdi intikam için tamamen hazırdır.

Deathstroke Şövalyeler ve Ejderhalar (2020) (Deathstroke Knights & Dragons: The Movie) Filmi Imdb'den 2,000 kişi tarafından oylandı ve 6,4 puan aldı. Bu film için editör puanı 5,5 olarak belirlendi. İyi Seyirler!

Teknik Detaylar

Kod :
General
Unique ID                                : 14523764507211790640213704163971008936 (0xAED2CE043135F01249CD46DB34389A8)
Complete name                            : /root/Desktop/8/Deathstroke.Knights.and.Dragons.The.Movie.2020.720p.BluRay.x264.TR.ENG.Filmbol.mkv
Format                                  : Matroska
Format version                          : Version 4 / Version 2
File size                                : 960 MiB
Duration                                : 1h 27mn
Overall bit rate                        : 1 536 Kbps
Movie name                              : Deathstroke Knights & Dragons - 2020 | Filmbol.org
Encoded date                            : UTC 2020-11-20 11:30:18
Writing application                      : mkvmerge v8.8.0 ('Wind at my back') 64bit
Writing library                          : libebml v1.3.3 + libmatroska v1.4.4

Video
ID                                      : 1
Format                                  : AVC
Format/Info                              : Advanced Video Codec
Format profile                          : High@L4.1
Format settings, CABAC                  : Yes
Format settings, ReFrames                : 4 frames
Codec ID                                : V_MPEG4/ISO/AVC
Duration                                : 1h 27mn
Bit rate                                : 1 150 Kbps
Width                                    : 1 280 pixels
Height                                  : 714 pixels
Display aspect ratio                    : 16:9
Frame rate mode                          : Constant
Frame rate                              : 23.976 (24000/1001) fps
Color space                              : YUV
Chroma subsampling                      : 4:2:0
Bit depth                                : 8 bits
Scan type                                : Progressive
Bits/(Pixel*Frame)                      : 0.052
Stream size                              : 719 MiB (75%)
Title                                    : Deathstroke Knights & Dragons - 2020 | Filmbol.org
Writing library                          : x264 core 159
Encoding settings                        : cabac=1 / ref=4 / deblock=1:-1:-1 / analyse=0x3:0x133 / me=umh / subme=9 / psy=1 / psy_rd=1.00:0.15 / mixed_ref=1 / me_range=24 / chroma_me=1 / trellis=2 / 8x8dct=1 / cqm=0 / deadzone=21,11 / fast_pskip=0 / chroma_qp_offset=-3 / threads=18 / lookahead_threads=1 / sliced_threads=0 / nr=0 / decimate=1 / interlaced=0 / bluray_compat=0 / constrained_intra=0 / bframes=3 / b_pyramid=2 / b_adapt=2 / b_bias=0 / direct=3 / weightb=1 / open_gop=0 / weightp=2 / keyint=250 / keyint_min=23 / scenecut=40 / intra_refresh=0 / rc_lookahead=60 / rc=2pass / mbtree=1 / bitrate=1150 / ratetol=1.0 / qcomp=0.60 / qpmin=0 / qpmax=69 / qpstep=4 / cplxblur=20.0 / qblur=0.5 / vbv_maxrate=31250 / vbv_bufsize=31250 / nal_hrd=none / filler=0 / ip_ratio=1.40 / aq=1:1.00
Default                                  : Yes
Forced                                  : No

Audio #1
ID                                      : 2
Format                                  : AC-3
Format/Info                              : Audio Coding 3
Mode extension                          : CM (complete main)
Format settings, Endianness              : Big
Codec ID                                : A_AC3
Duration                                : 1h 27mn
Bit rate mode                            : Constant
Bit rate                                : 192 Kbps
Channel(s)                              : 2 channels
Channel positions                        : Front: L R
Sampling rate                            : 48.0 KHz
Frame rate                              : 31.250 fps (1536 spf)
Compression mode                        : Lossy
Stream size                              : 120 MiB (12%)
Title                                    : Deathstroke Knights & Dragons - 2020 | Filmbol.org
Language                                : Turkish
Default                                  : Yes
Forced                                  : No

Audio #2
ID                                      : 3
Format                                  : AC-3
Format/Info                              : Audio Coding 3
Mode extension                          : CM (complete main)
Format settings, Endianness              : Big
Codec ID                                : A_AC3
Duration                                : 1h 27mn
Bit rate mode                            : Constant
Bit rate                                : 192 Kbps
Channel(s)                              : 2 channels
Channel positions                        : Front: L R
Sampling rate                            : 48.0 KHz
Frame rate                              : 31.250 fps (1536 spf)
Compression mode                        : Lossy
Stream size                              : 120 MiB (12%)
Title                                    : Deathstroke Knights & Dragons - 2020 | Filmbol.org
Language                                : English
Default                                  : No
Forced                                  : No

Text
ID                                      : 4
Format                                  : UTF-8
Codec ID                                : S_TEXT/UTF8
Codec ID/Info                            : UTF-8 Plain Text
Duration                                : 1h 24mn
Bit rate                                : 54 bps
Count of elements                        : 1109
Stream size                              : 33.9 KiB (0%)
Title                                    : Deathstroke Knights & Dragons - 2020 | Filmbol.org
Language                                : Turkish
Default                                  : No
Forced                                  : No

Film Detayları


 Deathstroke Şövalyeler ve Ejderhalar

 Deathstroke Şövalyeler ve Ejderhalar

 Deathstroke Şövalyeler ve Ejderhalar


Film Fragmanı


Film Detayları

Uptobox ile indir

1Fichier ile indir

1Fichier'den İndiremiyor musun? Tıklayın!


Mega linki şuan da gizli. Kullanıma açmak için konuya yorum yapın ve ardından sayfayı yenileyin.

Mega


Bunun için üzgünüz ancak, bu linke sadece premium üyeler erişebilir.

Filmbol Cloud



Konu ile Alakalı Benzer Konular
Konular Yazar Yorumlar Okunma Son Yorum
Filmin Yayınlanma Tarihi: 2014
Yıldızlararası (Interstellar) Türkçe Dublaj 720P İndir BroserBros 20 8,206 , Saat: 23:05
Son Yorum: Furkangeri786
Filmin Yayınlanma Tarihi: 2019
Resmi Sırlar (Official Secrets) - 2019 - TR+ORG - 720P BroserBros 2 217 , Saat: 22:37
Son Yorum: disc55
Filmin Yayınlanma Tarihi: 2019
Hemen Döneriz (Yerli) - 2019 - TR+ORG - 720P BroserBros 0 29 , Saat: 20:59
Son Yorum: BroserBros
Filmin Yayınlanma Tarihi: 2020
40'ından Sonra (The Forty-Year-Old Version) - 2020 - TR+ORG - 720P BroserBros 0 29 , Saat: 20:31
Son Yorum: BroserBros
Filmin Yayınlanma Tarihi: 2014
Hayat Kitabı (The Book of Life) - 2014 - TR+ORG - 720P BroserBros 2 170 24-01-2021, Saat: 20:15
Son Yorum: okidokii

Hızlı Menü: