Hoşgeldin, Ziyaretçi: Giriş Yap Üye Ol


stats
Adblock'u kapattıysanız tıklayın.
Hoşgeldiniz!
Filmbol'u tercih ettiğiniz için teşekkürler, ancak ablock kullanarak devam edemezsiniz.
Merak etmeyin. Heryerden ardı ardına çıkan reklamlar görmeyeceksiniz :)

Sadece site içi 1 reklam göreceksin ve bu site gezintini etkilemeyecek.
Konuyu Oyla:
  • Derecelendirme: 4/5 - 2 oy
  • 1
  • 2
  • 3
  • 4
  • 5
Title: Deadpool 2 Türkçe Dublaj m720P İndir
Gösterim Stili
#1
Filmin Yayınlanma Tarihi: 2018 

indirme türü


Bulut + Premium

vizyon tarihi


18 Mayıs 2018

Boyutlar


1,45

diller


[TR]

altyazilar


Yok [Eklenebilir]

Video Format: Mkv


Matroska (.MKV)

Video Detay


MPEG-4, 1290 Kbps, 1,07 GB

imdb puanı


7,9 / 10,0 / 230,000

süre


119 dakika

Ses Kodek: AC3


Audio Coding 3 (AC3)

Ses Detay


448 Kbps, 6 Kanal, 382 Mb

rarsifresi


filmbol.org

Editör Puanı


8,5

Genislik Yukseklik


1280x536

sürüm


x264 | m1080P | THEATRiCAL



Film Detayları

Deadpool, kahramanlık işlerini devam ettirmekte, bir yandan da gündelik hayatını sürdürmektedir. Kız arkadaşı Vanessa'yla mutlu bir ilişki sürdüren Deadpool'un düzeni, gelecekten gelen Cable'ın ortaya çıkışıyla sarsılır. Cable gelecekte tehdit oluşturacak bir çocuğun peşindedir. Deadpool, Cable'ı durdurabilmek için süper güçlere sahip bir ekibi toplar ve bu aykırı karakterlerden oluşan X-Force ekibi, Deadpool'la birlikte maceraya atılır...
Deadpool 2 Filmi İmdb'den 230.000 kişi tarafından oylandı ve 7,9 puan aldı. Bu film için editör puanı 8,5 olarak belirlendi. İyi Seyirler!


Teknik Detaylar
Kod:
General
Complete name                            : Deadpool.2.2018.THEATRiCAL.m720p.BLURAY.x264.TR.Filmbol.mkv
Format                                   : Matroska
Format version                           : Version 4 / Version 2
File size                                : 1.45 GiB
Duration                                 : 1 h 59 min
Overall bit rate                         : 1 740 kb/s
Movie name                               : DeadPool 2 / m720P / Filmbol.org
Encoded date                             : UTC 2018-08-20 16:42:36
Writing application                      : mkvmerge v15.0.0 ('Duel with the Devil') 64-bit
Writing library                          : libebml v1.3.5 + libmatroska v1.4.7
Cover                                    : Yes
Attachments                              : cover.jpg

Video
ID                                       : 1
Format                                   : AVC
Format/Info                              : Advanced Video Codec
Format profile                           : Main@L3.1
Format settings                          : CABAC / 2 Ref Frames
Format settings, CABAC                   : Yes
Format settings, ReFrames                : 2 frames
Codec ID                                 : V_MPEG4/ISO/AVC
Duration                                 : 1 h 59 min
Bit rate                                 : 1 290 kb/s
Width                                    : 1 280 pixels
Height                                   : 536 pixels
Display aspect ratio                     : 2.40:1
Frame rate mode                          : Constant
Frame rate                               : 23.976 (24000/1001) FPS
Color space                              : YUV
Chroma subsampling                       : 4:2:0
Bit depth                                : 8 bits
Scan type                                : Progressive
Bits/(Pixel*Frame)                       : 0.078
Stream size                              : 1.07 GiB (74%)
Title                                    : m720P - Filmbol.org
Default                                  : Yes
Forced                                   : No

Audio
ID                                       : 2
Format                                   : AC-3
Format/Info                              : Audio Coding 3
Codec ID                                 : A_AC3
Duration                                 : 1 h 59 min
Bit rate mode                            : Constant
Bit rate                                 : 448 kb/s
Channel(s)                               : 6 channels
Channel positions                        : Front: L C R, Side: L R, LFE
Sampling rate                            : 48.0 kHz
Frame rate                               : 31.250 FPS (1536 SPF)
Bit depth                                : 16 bits
Compression mode                         : Lossy
Stream size                              : 382 MiB (26%)
Title                                    : Türkçe - Filmbol.org
Language                                 : Turkish
Service kind                             : Complete Main
Default                                  : Yes
Forced                                   : No




Film Detayları


Deadpool 2

Deadpool 2

Deadpool 2

Deadpool 2

Deadpool 2


Film Fragmanı


Film Detayları

Mini 720P İndir


Turbobit İle İndir

Uptobox ile indir

Filmbol'da aşağıdaki linkler sadece üyelere sunulur. Ayrıca bu linklerde link kısaltma servisleri kullanılmaz, linke tek tık ile reklamsız erişirsiniz. Konu'ya yorum yapın ve sayfayı yenileyin. Reklamsız linkler (en az 3 en fazla 5 link) açılmış olacaktır. Not: Filmbol'a üye olmak tamamen ücretsizdir, en az 3 link kuralı 01.07.2019 tarihinden sonraki paylaşımlar için geçerlidir. Ancak çoğu film için en az bir premium link her zaman bulunur.

Mega

Dosyaco

Dosyaupload

Mediafire

Google Drive
 
Cevapla
#2
beyler link güzel tebrikler filmbol
 
Cevapla
#3
güzelllll
 
Cevapla
#4
Mega.nz ye eklenirse güzel olur
 
Cevapla
#5
teşekkürler
 
Cevapla
#6
Cloud linki de olursa çok iyi olur. Bu arada güzel film tavsiye ederim
 
Cevapla
#7
izlediğim en iyi filmlerden teşekkürler admin
 
Cevapla
#8
Çok güzel
 
Cevapla
#9
mükemmel aksiyon komedi fena bir film
 
Cevapla
#10
Film efsane tavsiye ederim
 
Cevapla
  


Konu ile Alakalı Benzer Konular
Konular Yazar Yorumlar Okunma Son Yorum
Filmin Yayınlanma Tarihi: 2016 Deadpool Türkçe Dublaj DUAL m720P İndir BroserBros 0 2,767 18-12-2016, Saat: 16:55
Son Yorum: BroserBros

Hızlı Menü:


Browsing: 1 Ziyaretçi