Filmbol Forum Film İndir 720P v Deadpool 2 Türkçe Dublaj m720P İndir
Moderatör Alımları Başladı! Başvuru yapmak için tıklayın.
Filmbol Premium'da %50'e varan indirim fırsatı!
Deadpool 2 Türkçe Dublaj m720P İndir
BroserBros
Deadpool 2 Türkçe Dublaj m720P İndir
35
7050
  • Derecelendirme: 4/5 - 2 oy
  • 1
  • 2
  • 3
  • 4
  • 5
Konuyu Okuyanlar:1 Ziyaretçi
Şuan Online!
Filmin Yayınlanma Tarihi: 2018 
Şuan Online!
BroserBros Kurucu Admin
*******
Admin

indirme türü


Bulut + Premium

Vizyon Tarihi


18 Mayıs 2018

Boyutlar


1,45

diller


[TR]

altyazilar


Yok [Eklenebilir]

Video Format: Mkv


Matroska (.MKV)

Video Detay


MPEG-4, 1290 Kbps, 1,07 GB

imdb puanı


7,9 / 10,0 / 230,000

süre


119 dakika

Ses Kodek: AC3


Audio Coding 3 (AC3)

Ses Detay


448 Kbps, 6 Kanal, 382 Mb

rarsifresi


filmbol.org

Editör Puanı


8,5

Genislik Yukseklik


1280x536

sürüm


x264 | 1080P | THEATRiCAL


Film Detayları

Deadpool, kahramanlık işlerini devam ettirmekte, bir yandan da gündelik hayatını sürdürmektedir. Kız arkadaşı Vanessa'yla mutlu bir ilişki sürdüren Deadpool'un düzeni, gelecekten gelen Cable'ın ortaya çıkışıyla sarsılır. Cable gelecekte tehdit oluşturacak bir çocuğun peşindedir. Deadpool, Cable'ı durdurabilmek için süper güçlere sahip bir ekibi toplar ve bu aykırı karakterlerden oluşan X-Force ekibi, Deadpool'la birlikte maceraya atılır...
Deadpool 2 Filmi İmdb'den 230.000 kişi tarafından oylandı ve 7,9 puan aldı. Bu film için editör puanı 8,5 olarak belirlendi. İyi Seyirler!


Teknik Detaylar
Kod :
General
Complete name                            : Deadpool.2.2018.THEATRiCAL.m720p.BLURAY.x264.TR.Filmbol.mkv
Format                                   : Matroska
Format version                           : Version 4 / Version 2
File size                                : 1.45 GiB
Duration                                 : 1 h 59 min
Overall bit rate                         : 1 740 kb/s
Movie name                               : DeadPool 2 / 720P / Filmbol.org
Encoded date                             : UTC 2018-08-20 16:42:36
Writing application                      : mkvmerge v15.0.0 ('Duel with the Devil') 64-bit
Writing library                          : libebml v1.3.5 + libmatroska v1.4.7
Cover                                    : Yes
Attachments                              : cover.jpg

Video
ID                                       : 1
Format                                   : AVC
Format/Info                              : Advanced Video Codec
Format profile                           : Main@L3.1
Format settings                          : CABAC / 2 Ref Frames
Format settings, CABAC                   : Yes
Format settings, ReFrames                : 2 frames
Codec ID                                 : V_MPEG4/ISO/AVC
Duration                                 : 1 h 59 min
Bit rate                                 : 1 290 kb/s
Width                                    : 1 280 pixels
Height                                   : 536 pixels
Display aspect ratio                     : 2.40:1
Frame rate mode                          : Constant
Frame rate                               : 23.976 (24000/1001) FPS
Color space                              : YUV
Chroma subsampling                       : 4:2:0
Bit depth                                : 8 bits
Scan type                                : Progressive
Bits/(Pixel*Frame)                       : 0.078
Stream size                              : 1.07 GiB (74%)
Title                                    : 720P - Filmbol.org
Default                                  : Yes
Forced                                   : No

Audio
ID                                       : 2
Format                                   : AC-3
Format/Info                              : Audio Coding 3
Codec ID                                 : A_AC3
Duration                                 : 1 h 59 min
Bit rate mode                            : Constant
Bit rate                                 : 448 kb/s
Channel(s)                               : 6 channels
Channel positions                        : Front: L C R, Side: L R, LFE
Sampling rate                            : 48.0 kHz
Frame rate                               : 31.250 FPS (1536 SPF)
Bit depth                                : 16 bits
Compression mode                         : Lossy
Stream size                              : 382 MiB (26%)
Title                                    : Türkçe - Filmbol.org
Language                                 : Turkish
Service kind                             : Complete Main
Default                                  : Yes
Forced                                   : No




Film Detayları


Deadpool 2

Deadpool 2

Deadpool 2

Deadpool 2

Deadpool 2


Film Fragmanı


Film Detayları

Mini 720P İndir


Uptobox ile indir


Mega ile indir

CloudRu ile indir

Şuan Offine!
Şuan Offine!
frkncnzirek Yeni Üye
*
Üye

  • Konular0
  • Mesajlar2
  • Rep puanı 0
beyler link güzel tebrikler filmbol
Şuan Offine!
Şuan Offine!
mucize Yeni Üye
*
Üye

  • Konular0
  • Mesajlar1
  • Rep puanı 0
güzelllll
Şuan Offine!
Şuan Offine!
Alper123 Yeni Üye
*
Üye

  • Konular0
  • Mesajlar1
  • Rep puanı 0
Mega.nz ye eklenirse güzel olur
Şuan Offine!
Şuan Offine!
kevser27 Yeni Üye
*
Üye

  • Konular0
  • Mesajlar1
  • Rep puanı 0
teşekkürler
Şuan Offine!
Şuan Offine!
VeTeRaN Yeni Üye
*
Üye

  • Konular0
  • Mesajlar3
  • Rep puanı 0
Cloud linki de olursa çok iyi olur. Bu arada güzel film tavsiye ederim
Şuan Offine!
Şuan Offine!
dızcı Yeni Üye
*
Üye

  • Konular0
  • Mesajlar1
  • Rep puanı 0
izlediğim en iyi filmlerden teşekkürler admin
Şuan Offine!
Şuan Offine!
Hebele123 Yeni Üye
*
Üye

  • Konular0
  • Mesajlar1
  • Rep puanı 0
Çok güzel
Şuan Offine!
Şuan Offine!
bugracan_slcn Yeni Üye
*
Üye

  • Konular0
  • Mesajlar1
  • Rep puanı 0
mükemmel aksiyon komedi fena bir film
Şuan Offine!
Şuan Offine!
Siloo Uzman Üye
**
Uzman Üye

  • Konular0
  • Mesajlar9
  • Rep puanı 0
Film efsane tavsiye ederim


Konu ile Alakalı Benzer Konular
Konular Yazar Yorumlar Okunma Son Yorum
Filmin Yayınlanma Tarihi: 2016
Lanetli Mesaj (Friend Request) Türkçe Dublaj m720P İndir BroserBros 2 1,455 29-07-2020, Saat: 14:11
Son Yorum: gurcan.d
Filmin Yayınlanma Tarihi: 2019
Shazam! 6 Güç Türkçe Dublaj Bluray m720P İndir BroserBros 3 722 18-05-2020, Saat: 19:03
Son Yorum: problemboy1
Filmin Yayınlanma Tarihi: 2019
The Silence (2019) Türkçe Dublaj BLURAY m720P İndir BroserBros 5 593 12-05-2020, Saat: 21:37
Son Yorum: Nizyy
Filmin Yayınlanma Tarihi: 2019
Godzilla 2: Canavarlar Kralı (King of the Monsters) Türkçe Dublaj BLURAY m720P İndir BroserBros 12 1,070 03-05-2020, Saat: 17:05
Son Yorum: jisiso5307
Filmin Yayınlanma Tarihi: 2004
Harry Potter ve Azbakan Tutsağı (Prisoner of Azkaban) Türkçe Dublaj m720P İndir BroserBros 15 1,362 14-04-2020, Saat: 04:06
Son Yorum: quneshlee

Hızlı Menü: