Hoşgeldin, Ziyaretçi: Giriş Yap Üye Ol


stats
Adblock'u kapattıysanız tıklayın.
Hoşgeldiniz!
Filmbol'u tercih ettiğiniz için teşekkürler, ancak ablock kullanarak devam edemezsiniz.
Merak etmeyin. Heryerden ardı ardına çıkan reklamlar görmeyeceksiniz :)

Sadece site içi 1 reklam göreceksin ve bu site gezintini etkilemeyecek.
Konuyu Oyla:
  • Derecelendirme: 0/5 - 0 oy
  • 1
  • 2
  • 3
  • 4
  • 5
Title: Deadpool 2 Türkçe Dublaj m1080P İndir
Gösterim Stili
#1
Filmin Yayınlanma Tarihi: 2018 

indirme türü


Bulut + Premium

vizyon tarihi


18 Mayıs 2018

Boyutlar


2,07

diller


[TR]

altyazilar


Yok [Eklenebilir]

Video Format: Mkv


Matroska (.MKV)

Video Detay


MPEG-4, 2040 Kbps, 1,70 GB

imdb puanı


7,9 / 10,0 / 230,000

süre


119 dakika

Ses Kodek: AC3


Audio Coding 3 (AC3)

Ses Detay


448 Kbps, 6 Kanal, 382 Mb

rarsifresi


filmbol.org

Editör Puanı


8,5

Genislik Yukseklik


1920x804

sürüm


x264 | 1080P | THEATRiCAL



Film Detayları

Deadpool, kahramanlık işlerini devam ettirmekte, bir yandan da gündelik hayatını sürdürmektedir. Kız arkadaşı Vanessa'yla mutlu bir ilişki sürdüren Deadpool'un düzeni, gelecekten gelen Cable'ın ortaya çıkışıyla sarsılır. Cable gelecekte tehdit oluşturacak bir çocuğun peşindedir. Deadpool, Cable'ı durdurabilmek için süper güçlere sahip bir ekibi toplar ve bu aykırı karakterlerden oluşan X-Force ekibi, Deadpool'la birlikte maceraya atılır...
Deadpool 2 Filmi İmdb'den 230.000 kişi tarafından oylandı ve 7,9 puan aldı. Bu film için editör puanı 8,5 olarak belirlendi. İyi Seyirler!


Teknik Detaylar
Kod:
General
Complete name                            : Deadpool.2.2018.THEATRiCAL.m720p.BLURAY.x264.TR.Filmbol.mkv
Format                                   : Matroska
Format version                           : Version 4 / Version 2
File size                                : 1.45 GiB
Duration                                 : 1 h 59 min
Overall bit rate                         : 1 740 kb/s
Movie name                               : DeadPool 2 / 720P / Filmbol.org
Encoded date                             : UTC 2018-08-20 16:42:36
Writing application                      : mkvmerge v15.0.0 ('Duel with the Devil') 64-bit
Writing library                          : libebml v1.3.5 + libmatroska v1.4.7
Cover                                    : Yes
Attachments                              : cover.jpg

Video
ID                                       : 1
Format                                   : AVC
Format/Info                              : Advanced Video Codec
Format profile                           : Main@L3.1
Format settings                          : CABAC / 2 Ref Frames
Format settings, CABAC                   : Yes
Format settings, ReFrames                : 2 frames
Codec ID                                 : V_MPEG4/ISO/AVC
Duration                                 : 1 h 59 min
Bit rate                                 : 1 290 kb/s
Width                                    : 1 280 pixels
Height                                   : 536 pixels
Display aspect ratio                     : 2.40:1
Frame rate mode                          : Constant
Frame rate                               : 23.976 (24000/1001) FPS
Color space                              : YUV
Chroma subsampling                       : 4:2:0
Bit depth                                : 8 bits
Scan type                                : Progressive
Bits/(Pixel*Frame)                       : 0.078
Stream size                              : 1.07 GiB (74%)
Title                                    : 720P - Filmbol.org
Default                                  : Yes
Forced                                   : No

Audio
ID                                       : 2
Format                                   : AC-3
Format/Info                              : Audio Coding 3
Codec ID                                 : A_AC3
Duration                                 : 1 h 59 min
Bit rate mode                            : Constant
Bit rate                                 : 448 kb/s
Channel(s)                               : 6 channels
Channel positions                        : Front: L C R, Side: L R, LFE
Sampling rate                            : 48.0 kHz
Frame rate                               : 31.250 FPS (1536 SPF)
Bit depth                                : 16 bits
Compression mode                         : Lossy
Stream size                              : 382 MiB (26%)
Title                                    : Türkçe - Filmbol.org
Language                                 : Turkish
Service kind                             : Complete Main
Default                                  : Yes
Forced                                   : No




Film Detayları


Deadpool 2

Deadpool 2

Deadpool 2

Deadpool 2

Deadpool 2


Film Fragmanı


Film Detayları

Mini 1080P İndir


Uptobox ile indir


mr5G
Mediafire linki şuan da gizli. Kullanıma açmak için konuya yorum yapın ve ardından sayfayı yenileyin. Ayrıca bu linki açtığınızda reklamsız olarak erişebileceğinizi unutmayın.

Mediafire


Mega linki şuan da gizli. Kullanıma açmak için konuya yorum yapın ve ardından sayfayı yenileyin. Ayrıca bu linki açtığınızda reklamsız olarak erişebileceğinizi unutmayın.

Mega


 
Cevapla
#2
Kayıt oldum premium linkler henüz açılmadı?

Yorumdan sonra açıldı çok teşekkür ederim.
 
Cevapla
#3
Teşekkür ederim
 
Cevapla
#4
(24-08-2018, Saat: 10:21)BlackWhite Adlı Kullanıcıdan Alıntı: Kayıt oldum premium linkler henüz açılmadı?

Yorumdan sonra açıldı çok teşekkür ederim.

Halledebilmenize sevindik. Yorum yaptıktan sonra sayfayı yenileyerek(F5) Premium linklerinizi açabilirsiniz. Yardım edebileceğimiz başka bir konu olursa yazmaktan çekinmeyin. Smile

Biz teşekkür eder, iyi seyirler dileriz. 

(24-08-2018, Saat: 15:01)zehre Adlı Kullanıcıdan Alıntı: Teşekkür ederim

Biz teşekkür ederiz. İyi seyirler.
 
Cevapla
#5
teşekkürler...
 
Cevapla
#6
TŞKLER
 
Cevapla
#7
Fena film
 
Cevapla
#8
nasl indircem
 
Cevapla
#9
Güzel bi filmdi blurayın düşmesine sevindim
 
Cevapla
#10
film fena değil
 
Cevapla
  


Konu ile Alakalı Benzer Konular
Konular Yazar Yorumlar Okunma Son Yorum
Filmin Yayınlanma Tarihi: 2018 Mission: Impossible - Yansımalar (Fallout) Türkçe Dublaj m1080P İndir DRMOV 7 451 1 saat önce
Son Yorum: mertsoydas2
Filmin Yayınlanma Tarihi: 2017 John Wick 2 (Chapter 2) Türkçe Dublaj BLURAY m1080P İndir BroserBros 12 540 07-12-2019, Saat: 18:00
Son Yorum: ısadnasd
Filmin Yayınlanma Tarihi: 2017 Belalı Tanık (2017) Türkçe Dublaj m1080P İndir BroserBros 4 982 06-12-2019, Saat: 22:38
Son Yorum: dejavu
Filmin Yayınlanma Tarihi: 2018 Örümcek Ağındaki Kız (The Girld in the Spider's Web) Türkçe Dublaj m1080P İndir BroserBros 2 164 02-12-2019, Saat: 13:51
Son Yorum: ycanb
Filmin Yayınlanma Tarihi: 2019 Triple Frontier (2019) Türkçe dublaj m1080P indir BroserBros 6 317 02-12-2019, Saat: 01:46
Son Yorum: ycanb

Hızlı Menü:


Browsing: 7 Ziyaretçi