Hoşgeldin, Ziyaretçi: Giriş Yap Üye Ol


stats
Adblock'u kapattıysanız tıklayın.
Hoşgeldiniz!
Filmbol'u tercih ettiğiniz için teşekkürler, ancak ablock kullanarak devam edemezsiniz.
Merak etmeyin. Heryerden ardı ardına çıkan reklamlar görmeyeceksiniz :)

Sadece site içi 1 reklam göreceksin ve bu site gezintini etkilemeyecek.
Konuyu Oyla:
  • Derecelendirme: 5/5 - 1 oy
  • 1
  • 2
  • 3
  • 4
  • 5
Deadpool 2 Türkçe Dublaj Brrip-Xvid İndir
#1
Filmin Yayınlanma Tarihi: 2018 

indirme türü


Bulut + Premium

vizyon tarihi


18 Mayıs 2018

Boyutlar


1,44

diller


[TR]

altyazilar


Yok [Eklenebilir]

Video Format: Avi


Audio Video Interleave (.AVI)

Video Detay


MPEG-4, 1597 Kbps, 1,33 GB

imdb puanı


7,9 / 10,0 / 230,000

süre


119 dakika

Ses Kodek: MP3


MPEG-1 Audio Layer III (MP3)

Ses Detay


128 Kbps, 2 Kanal, 109 Mb

rarsifresi


filmbol.org

Editör Puanı


8,5

Genislik Yukseklik


720x302

sürüm


h263 | Brrip-Xvid



Film Detayları

Deadpool, kahramanlık işlerini devam ettirmekte, bir yandan da gündelik hayatını sürdürmektedir. Kız arkadaşı Vanessa'yla mutlu bir ilişki sürdüren Deadpool'un düzeni, gelecekten gelen Cable'ın ortaya çıkışıyla sarsılır. Cable gelecekte tehdit oluşturacak bir çocuğun peşindedir. Deadpool, Cable'ı durdurabilmek için süper güçlere sahip bir ekibi toplar ve bu aykırı karakterlerden oluşan X-Force ekibi, Deadpool'la birlikte maceraya atılır...
Deadpool 2 Filmi İmdb'den 230.000 kişi tarafından oylandı ve 7,9 puan aldı. Bu film için editör puanı 8,5 olarak belirlendi. İyi Seyirler!


Teknik Detaylar

Kod:
General
Complete name                            : Deadpool.2.2018.BRRip.XviD.TR.Filmbol.avi
Format                                   : AVI
Format/Info                              : Audio Video Interleave
File size                                : 1.45 GiB
Duration                                 : 1 h 59 min
Overall bit rate                         : 1 738 kb/s

Video
ID                                       : 0
Format                                   : MPEG-4 Visual
Format profile                           : Simple@L5
Format settings, BVOP                    : No
Format settings, QPel                    : No
Format settings, GMC                     : No warppoints
Format settings, Matrix                  : Default (H.263)
Codec ID                                 : XVID
Codec ID/Hint                            : XviD
Duration                                 : 1 h 59 min
Bit rate                                 : 1 597 kb/s
Width                                    : 720 pixels
Height                                   : 302 pixels
Display aspect ratio                     : 2.40:1
Frame rate                               : 23.976 (24000/1001) FPS
Color space                              : YUV
Chroma subsampling                       : 4:2:0
Bit depth                                : 8 bits
Scan type                                : Progressive
Compression mode                         : Lossy
Bits/(Pixel*Frame)                       : 0.306
Stream size                              : 1.33 GiB (92%)
Writing library                          : Lavc57.107.100

Audio
ID                                       : 1
Format                                   : MPEG Audio
Format version                           : Version 1
Format profile                           : Layer 3
Format settings                          : Joint stereo / MS Stereo
Codec ID                                 : 55
Codec ID/Hint                            : MP3
Duration                                 : 1 h 59 min
Bit rate mode                            : Constant
Bit rate                                 : 128 kb/s
Channel(s)                               : 2 channels
Sampling rate                            : 48.0 kHz
Frame rate                               : 41.667 FPS (1152 SPF)
Compression mode                         : Lossy
Stream size                              : 109 MiB (7%)
Alignment                                : Aligned on interleaves
Interleave, duration                     : 24  ms (0.58 video frame)




Film Detayları


Deadpool 2

Deadpool 2

Deadpool 2

Deadpool 2

Deadpool 2


Film Fragmanı


Film Detayları

Brrip İndir


Turbobit İle İndir

Uptobox ile indir

Filmbol'da aşağıdaki linkler sadece üyelere sunulur. Ayrıca bu linklerde link kısaltma servisleri kullanılmaz, linke tek tık ile reklamsız erişirsiniz. Konu'ya yorum yapın ve sayfayı yenileyin. Reklamsız linkler (en az 3 en fazla 5 link) açılmış olacaktır. Not: Filmbol'a üye olmak tamamen ücretsizdir, en az 3 link kuralı 01.07.2019 tarihinden sonraki paylaşımlar için geçerlidir. Ancak çoğu film için en az bir premium link her zaman bulunur.

Mega

Dosyaco

Dosyaupload

Mediafire

Google Drive
 
Cevapla
#2
Tsklerrr
 
Cevapla
#3
tşk ederim
 
Cevapla
#4
adamsın kankaaaa
 
Cevapla
#5
saolasın
 
Cevapla
#6
gerçekten harika bir site, izlediğim tüm filmleri buradan indiriyorum Heart
 
Cevapla
#7
Teşekkürler  Heart Heart
 
Cevapla
#8
saolasın
 
Cevapla
  


Konu ile Alakalı Benzer Konular
Konular Yazar Yorumlar Okunma Son Yorum
Filmin Yayınlanma Tarihi: 2017 John Wick 2 (Chapter 2) Türkçe Dublaj Brrip Xvid İndir BroserBros 1 69 , Saat: 00:11
Son Yorum: ufukus
Filmin Yayınlanma Tarihi: 2018 Entebbe'de 7 Gün (Entebbe) Türkçe Dublaj Brrip Xvid İndir BroserBros 1 78 04-09-2019, Saat: 08:55
Son Yorum: mert06
Filmin Yayınlanma Tarihi: 2018 Şiddet Eylemleri (Acts of Violence) Türkçe Dublaj Brrip Xvid İndir BroserBros 0 29 02-09-2019, Saat: 22:18
Son Yorum: BroserBros
Filmin Yayınlanma Tarihi: 2018 Adaletsiz - Dragged Across Concrete (2018) - Türkçe Dublaj BRRip XviD İndir NtDTr 0 155 08-08-2019, Saat: 18:52
Son Yorum: NtDTr
Filmin Yayınlanma Tarihi: 2018 Overlord Operasyonu (2018) Türkçe Dublaj Brrip Xvid İndir BroserBros 0 99 07-08-2019, Saat: 21:40
Son Yorum: BroserBros

Hızlı Menü:


Şu anda bu konuyu okuyanlar: edizshady, 1 Ziyaretçi