Filmbol Forum Film İndir BRRip XviD v Davetsiz Misafir (The Intruder) Türkçe Dublaj BRRip XviD indir
Mega linklerinin şikayet edilmemesi için global erişime kapatıp sadece yorum yapanlara açıyoruz. Bu linkleri gizleme işlemini mecburen yapıyoruz ve yorum yapmanızın siteye değil size faydası vardır. Teşekürler yazmayı çok görüp, Random/Spam mesajlar atarak Mega linklerini açmaya çalışan kullanıcılara önce süresiz ban, devam ederse IP ban atacağız.
Filmbol'da moderatör olmak ister misiniz? Bizimle iletişime geçmek için tıklayın!
Davetsiz Misafir (The Intruder) Türkçe Dublaj BRRip XviD indir
BroserBros
Davetsiz Misafir (The Intruder) Türkçe Dublaj BRRip XviD indir
0
214
  • Derecelendirme: 0/5 - 0 oy
  • 1
  • 2
  • 3
  • 4
  • 5
Konuyu Okuyanlar:1 Ziyaretçi
Şuan Online!
Filmin Yayınlanma Tarihi: 2019 
WWW
Şuan Online!
BroserBros Kurucu Admin
*******
Admin








 Davetsiz Misafir



Birbirini çok seven bir çift, evlenirler ve bir bebek hayali kurmaya başlarlar. Ancak istedikleri gibi bir eve sahip olmayan çift, hayallerindeki evi aramaya başlarlar. İstekleri ev çocuklarını güzelce büyütebilecekleri geniş ve ferah bir evdir. Çift bir süre sonra tam da aradıkları evi bulurlar ve taşınırlar. Ancak bir sorun vardır, Charlie'den aldıkları evde Charlienin anlattıklarından çok daha farklı şeyler vardır ve Charlie çoğu önemli şeyi Çifte söylememiştir...

Davetsiz Misafir (2019) (The Intruder) Filmi Imdb'den 10,000 kişi tarafından oylandı ve 5,5 puan aldı. Bu film için editör puanı 5,8 olarak belirlendi. İyi Seyirler!

Teknik Detaylar

Kod :
General
Complete name                            : /root/Desktop/1/The.Intruder.2019.BRRip.XViD.TR.Filmbol.avi
Format                                   : AVI
Format/Info                              : Audio Video Interleave
File size                                : 1.24 GiB
Duration                                 : 1h 42mn
Overall bit rate                         : 1 735 Kbps

Video
ID                                       : 0
Format                                   : MPEG-4 Visual
Format profile                           : Advanced [email protected]
Format settings, BVOP                    : 1
Format settings, QPel                    : No
Format settings, GMC                     : No warppoints
Format settings, Matrix                  : Custom
Codec ID                                 : XVID
Codec ID/Hint                            : XviD
Duration                                 : 1h 42mn
Bit rate                                 : 1 594 Kbps
Width                                    : 720 pixels
Height                                   : 304 pixels
Display aspect ratio                     : 2.35:1
Frame rate                               : 23.976 (24000/1001) fps
Color space                              : YUV
Chroma subsampling                       : 4:2:0
Bit depth                                : 8 bits
Scan type                                : Progressive
Compression mode                         : Lossy
Bits/(Pixel*Frame)                       : 0.304
Stream size                              : 1.14 GiB (92%)
Writing library                          : XviD 73

Audio
ID                                       : 1
Format                                   : MPEG Audio
Format version                           : Version 1
Format profile                           : Layer 3
Mode                                     : Joint stereo
Mode extension                           : MS Stereo
Codec ID                                 : 55
Codec ID/Hint                            : MP3
Duration                                 : 1h 42mn
Bit rate mode                            : Constant
Bit rate                                 : 128 Kbps
Channel(s)                               : 2 channels
Sampling rate                            : 48.0 KHz
Compression mode                         : Lossy
Stream size                              : 93.4 MiB (7%)
Alignment                                : Aligned on interleaves
Interleave, duration                     : 24 ms (0.58 video frame)

Film Detayları


 Davetsiz Misafir

 Davetsiz Misafir

 Davetsiz Misafir


Film Fragmanı


Film Detayları


Uptobox ile indir

1Fichier ile indir

1Fichier'den İndiremiyor musun? Tıklayın!


Mega linki şuan da gizli. Kullanıma açmak için konuya yorum yapın ve ardından sayfayı yenileyin.

Mega


MediaFire ile indir



Konu ile Alakalı Benzer Konular
Konular Yazar Yorumlar Okunma Son Yorum
Filmin Yayınlanma Tarihi: 1972
Baba (The Godfather) - 1972 - TR - BRRip XviD | tt0068646 BroserBros 2 252 25 dakika önce
Son Yorum: BroserBros
Filmin Yayınlanma Tarihi: 1990
Baba 3 (The Godfather: Part III) - 1990 - TR - BRRip XviD | tt0099674 BroserBros 3 286 46 dakika önce
Son Yorum: Furkan61
Filmin Yayınlanma Tarihi: 1998
Armageddon (Armageddon) - 1998 - TR - BRRip XviD | tt0120591 BroserBros 1 266 2 saat önce
Son Yorum: BroserBros
Filmin Yayınlanma Tarihi: 2019
Uzaydan Gelen Renk (Color Out of Space) - 2019 - TR - BRRip XviD | tt5073642 TheSteeL 0 34 , Saat: 21:57
Son Yorum: TheSteeL
  I Care a Lot (I Care a Lot) - 2020 - TR - BRRip XviD | tt9893250 TheSteeL 0 30 , Saat: 21:51
Son Yorum: TheSteeL

Hızlı Menü: