Filmbol Forum Film İndir BRRip XviD v Cüce Dedektif Şerlok (Sherlock Gnomes) Türkçe Dublaj BRRip XviD İndir
Filmbol'da moderatör olmak ister misiniz? Bizimle iletişime geçmek için tıklayın!
Cüce Dedektif Şerlok (Sherlock Gnomes) Türkçe Dublaj BRRip XviD İndir
BroserBros
Cüce Dedektif Şerlok (Sherlock Gnomes) Türkçe Dublaj BRRip XviD İndir
1
276
  • Derecelendirme: 0/5 - 0 oy
  • 1
  • 2
  • 3
  • 4
  • 5
Konuyu Okuyanlar:1 Ziyaretçi
Şuan Online!
Filmin Yayınlanma Tarihi: 2018 
Şuan Online!
BroserBros Kurucu Admin
*******
Admin

Vizyon Tarihi


01 Haziran 2018

imdb puanı


5,1 / 10,0000

süre


86 dakika

Editör Puanı


5,5 / 10

Video Format: Avi


Audio Video Interleave (.AVI)

Ses Kodek: MP3


MPEG-1 Audio Layer III (MP3)

sürüm


h263 | BRRip XviD

Boyutlar


1,00



Cüce Dedektif Şerlok



Sevimli cüceler Cino ve Jülyet aileleri ve arkadaşlarıyla birlikte şehre ilk geldiklerinde en büyük istekleri yeni bahçelerini ilkbahar için hazır etmektir. Fakat, kısa bir süre içinde birinin Londra’nın dört bir yanındaki bahçe cücelerini kaçırdığını fark ederler. Ne yapacaklarını bilemeyen Cino ve Jülyet, çareyi ünlü dedektif Şerlok'tan yardım istemekte bulur. Şerlok, kaybolan bahçe cücelerini bulabilecek midir?

Cüce Dedektif Şerlok (2018) (Sherlock Gnomes) Filmi Imdb'den 10,0000 kişi tarafından oylandı ve 5,1 puan aldı. Bu film için editör puanı 5,5 olarak belirlendi. İyi Seyirler!

Teknik Detaylar

Kod :
General Complete name                            : /root/Desktop/4/Cüce.Dedektif.Şerlok.2018.BRRip.XviD.TR.Filmbol.avi Format                                   : AVI Format/Info                              : Audio Video Interleave File size                                : 1.00 GiB Duration                                 : 1h 26mn Overall bit rate                         : 1 662 Kbps  Video ID                                       : 0 Format                                   : MPEG-4 Visual Format profile                           : Simple@L5 Format settings, BVOP                    : No Format settings, QPel                    : No Format settings, GMC                     : No warppoints Format settings, Matrix                  : Default (H.263) Codec ID                                 : XVID Codec ID/Hint                            : XviD Duration                                 : 1h 26mn Bit rate                                 : 1 521 Kbps Width                                    : 720 pixels Height                                   : 302 pixels Display aspect ratio                     : 2.40:1 Frame rate                               : 23.976 (23976/1000) fps Color space                              : YUV Chroma subsampling                       : 4:2:0 Bit depth                                : 8 bits Scan type                                : Progressive Compression mode                         : Lossy Bits/(Pixel*Frame)                       : 0.292 Stream size                              : 939 MiB (92%) Writing library                          : Lavc57.107.100  Audio ID                                       : 1 Format                                   : MPEG Audio Format version                           : Version 1 Format profile                           : Layer 3 Mode                                     : Joint stereo Codec ID                                 : 55 Codec ID/Hint                            : MP3 Duration                                 : 1h 26mn Bit rate mode                            : Constant Bit rate                                 : 128 Kbps Channel(s)                               : 2 channels Sampling rate                            : 48.0 KHz Compression mode                         : Lossy Stream size                              : 79.0 MiB (8%) Alignment                                : Aligned on interleaves Interleave, duration                     : 24 ms (0.58 video frame)

Film Detayları


Cüce Dedektif Şerlok

Cüce Dedektif Şerlok

Cüce Dedektif Şerlok


Film Fragmanı


Film Detayları

Brrip İndir

Uptobox ile indir

1Fichier ile indir

1Fichier'den İndiremiyor musun? Tıklayın!


Mega ile indir

MediaFire ile indir

Şuan Offine!
Şuan Offine!
hayri40 Uzman Üye
**
Uzman Üye

  • Konular0
  • Mesajlar19
  • Rep puanı 0
Teşekkürler


Konu ile Alakalı Benzer Konular
Konular Yazar Yorumlar Okunma Son Yorum
Filmin Yayınlanma Tarihi: 2020
Deathstroke Şövalyeler ve Ejderhalar (Deathstroke Knights & Dragons: The Movie) - 2020 - TR - BRRip XviD BroserBros 0 47 23-11-2020, Saat: 18:30
Son Yorum: BroserBros
Filmin Yayınlanma Tarihi: 2019
15 Dakika Savaş (L'intervention) - 2019 - TR - BRRip XviD BroserBros 0 47 23-11-2020, Saat: 17:42
Son Yorum: BroserBros
Filmin Yayınlanma Tarihi: 2020
Sürprizli Gece (The Sleepover) - 2020 - TR - BRRip XviD BroserBros 0 48 23-11-2020, Saat: 16:18
Son Yorum: BroserBros
Filmin Yayınlanma Tarihi: 2020
Feride (Feride) - 2020 - TR - BRRip XviD BroserBros 0 39 22-11-2020, Saat: 17:58
Son Yorum: BroserBros
Filmin Yayınlanma Tarihi: 2019
Gel Babacığına (Come to Daddy) - 2019 - TR - BRRip XviD BroserBros 0 35 22-11-2020, Saat: 17:43
Son Yorum: BroserBros

Hızlı Menü: