Filmbol Forum Film İndir 720P v Cüce Dedektif Şerlok (Sherlock Gnomes) Türkçe Dublaj BLURAY 720P İndir
Filmbol'da moderatör olmak ister misiniz? Bizimle iletişime geçmek için tıklayın!
Cüce Dedektif Şerlok (Sherlock Gnomes) Türkçe Dublaj BLURAY 720P İndir
BroserBros
Cüce Dedektif Şerlok (Sherlock Gnomes) Türkçe Dublaj BLURAY 720P İndir
2
280
  • Derecelendirme: 0/5 - 0 oy
  • 1
  • 2
  • 3
  • 4
  • 5
Konuyu Okuyanlar:1 Ziyaretçi
Şuan Online!
Filmin Yayınlanma Tarihi: 2018 
Şuan Online!
BroserBros Kurucu Admin
*******
Admin

Vizyon Tarihi


01 Haziran 2018

imdb puanı


5,1 / 10,0000

süre


86 dakika

Editör Puanı


5,5 / 10

Video Format: Mkv


Matroska (.MKV)

Ses Kodek: AC3


Audio Coding 3 (AC3)

sürüm


x264 | 720P | BLURAY

Boyutlar


0,88



Cüce Dedektif Şerlok



Sevimli cüceler Cino ve Jülyet aileleri ve arkadaşlarıyla birlikte şehre ilk geldiklerinde en büyük istekleri yeni bahçelerini ilkbahar için hazır etmektir. Fakat, kısa bir süre içinde birinin Londra’nın dört bir yanındaki bahçe cücelerini kaçırdığını fark ederler. Ne yapacaklarını bilemeyen Cino ve Jülyet, çareyi ünlü dedektif Şerlok'tan yardım istemekte bulur. Şerlok, kaybolan bahçe cücelerini bulabilecek midir?

Cüce Dedektif Şerlok (2018) (Sherlock Gnomes) Filmi Imdb'den 10,0000 kişi tarafından oylandı ve 5,1 puan aldı. Bu film için editör puanı 5,5 olarak belirlendi. İyi Seyirler!

Teknik Detaylar

Kod :
General Unique ID                                : 67993645036502463055365778466552475194 (0x33271985F6DF3CB5E05C1FC1FD34EE3A) Complete name                            : /root/Desktop/4/Cüce.Dedektif.Şerlok.2018.720p.BluRay.x264.TR.Filmbol.mkv Format                                   : Matroska Format version                           : Version 4 / Version 2 File size                                : 886 MiB Duration                                 : 1h 26mn Overall bit rate                         : 1 435 Kbps Movie name                               : Cüce Dedektif Şerlok (2018) - Filmbol.org Encoded date                             : UTC 2020-01-09 00:00:31 Writing application                      : mkvmerge v35.0.0 ('All The Love In The World') 64-bit Writing library                          : libebml v1.3.9 + libmatroska v1.5.2  Video ID                                       : 1 Format                                   : AVC Format/Info                              : Advanced Video Codec Format profile                           : High@L4.1 Format settings, CABAC                   : Yes Format settings, ReFrames                : 4 frames Codec ID                                 : V_MPEG4/ISO/AVC Duration                                 : 1h 26mn Bit rate                                 : 1 050 Kbps Width                                    : 1 280 pixels Height                                   : 534 pixels Display aspect ratio                     : 2.40:1 Original display aspect ratio            : 2.40:1 Frame rate mode                          : Constant Frame rate                               : 23.976 (24000/1001) fps Color space                              : YUV Chroma subsampling                       : 4:2:0 Bit depth                                : 8 bits Scan type                                : Progressive Bits/(Pixel*Frame)                       : 0.064 Stream size                              : 648 MiB (73%) Title                                    : 720P - Filmbol.org Writing library                          : x264 core 152 Encoding settings                        : cabac=1 / ref=4 / deblock=1:-1:-1 / analyse=0x3:0x133 / me=umh / subme=9 / psy=1 / psy_rd=1.00:0.15 / mixed_ref=1 / me_range=24 / chroma_me=1 / trellis=2 / 8x8dct=1 / cqm=0 / deadzone=21,11 / fast_pskip=0 / chroma_qp_offset=-3 / threads=12 / lookahead_threads=1 / sliced_threads=0 / nr=0 / decimate=1 / interlaced=0 / bluray_compat=0 / constrained_intra=0 / bframes=3 / b_pyramid=2 / b_adapt=2 / b_bias=0 / direct=3 / weightb=1 / open_gop=0 / weightp=2 / keyint=250 / keyint_min=23 / scenecut=40 / intra_refresh=0 / rc_lookahead=60 / rc=2pass / mbtree=1 / bitrate=1050 / ratetol=1.0 / qcomp=0.60 / qpmin=0 / qpmax=69 / qpstep=4 / cplxblur=20.0 / qblur=0.5 / vbv_maxrate=31250 / vbv_bufsize=31250 / nal_hrd=none / filler=0 / ip_ratio=1.40 / aq=1:1.00 Default                                  : Yes Forced                                   : No  Audio ID                                       : 2 Format                                   : AC-3 Format/Info                              : Audio Coding 3 Mode extension                           : CM (complete main) Format settings, Endianness              : Big Codec ID                                 : A_AC3 Duration                                 : 1h 26mn Bit rate mode                            : Constant Bit rate                                 : 384 Kbps Channel(s)                               : 6 channels Channel positions                        : Front: L C R, Side: L R, LFE Sampling rate                            : 48.0 KHz Frame rate                               : 31.250 fps (1536 spf) Compression mode                         : Lossy Stream size                              : 237 MiB (27%) Title                                    : Türkçe - Filmbol.org Default                                  : Yes Forced                                   : No

Film Detayları


Cüce Dedektif Şerlok

Cüce Dedektif Şerlok

Cüce Dedektif Şerlok


Film Fragmanı


Film Detayları

Mini 720P İndir

Uptobox ile indir

1Fichier ile indir

1Fichier'den İndiremiyor musun? Tıklayın!


Mega ile indir

MediaFire ile indir

Şuan Offine!
Şuan Offine!
rasputhink Yeni Üye
*
Üye

  • Konular0
  • Mesajlar4
  • Rep puanı 0
erasdasd

İndirmek istiyorum
Şuan Offine!
Şuan Offine!
sefali Yeni Üye
*
Üye

  • Konular0
  • Mesajlar3
  • Rep puanı 0
iyi imiş


Konu ile Alakalı Benzer Konular
Konular Yazar Yorumlar Okunma Son Yorum
Filmin Yayınlanma Tarihi: 2019
Hain (The Traitor / Il traditore) - 2019 - TR+ORG - 720P BroserBros 0 25 , Saat: 16:04
Son Yorum: BroserBros
Filmin Yayınlanma Tarihi: 2020
All Together Now (All Together Now) - 2020 - TR+ORG - 720P BroserBros 0 23 , Saat: 15:48
Son Yorum: BroserBros
Filmin Yayınlanma Tarihi: 2019
Ibiza (Ibiza) - 2019 - TR+ORG - 720P BroserBros 0 23 , Saat: 14:56
Son Yorum: BroserBros
Filmin Yayınlanma Tarihi: 2018
Yaramazlar Takımı: Zaman Yolcuları (Smeshariki. Dezha vyu) - 2018 - TR+ORG - 720P BroserBros 0 28 25-11-2020, Saat: 17:59
Son Yorum: BroserBros
Filmin Yayınlanma Tarihi: 2018
Tutarsız Adam (Spinning Man) - 2018 - TR+ORG - 720P BroserBros 0 30 25-11-2020, Saat: 17:27
Son Yorum: BroserBros

Hızlı Menü: