Filmbol Forum Film İndir 720P v Cross 3 (Cross: Rise of the Villains) - 2019 - TR - 720P
Moderatör Alımları Başladı! Başvuru yapmak için tıklayın.
Filmbol Premium'da %50'e varan indirim fırsatı!
Cross 3 (Cross: Rise of the Villains) - 2019 - TR - 720P
BroserBros
Cross 3 (Cross: Rise of the Villains) - 2019 - TR - 720P
0
61
  • Derecelendirme: 0/5 - 0 oy
  • 1
  • 2
  • 3
  • 4
  • 5
Konuyu Okuyanlar:1 Ziyaretçi
Şuan Online!
Filmin Yayınlanma Tarihi: 2019 
Şuan Online!
BroserBros Kurucu Admin
*******
Admin

Vizyon Tarihi


12 Kasım 2019

imdb puanı


3,5 / 100

süre


100 dakika

Editör Puanı


4,0 / 10

Video Format: Mkv


Matroska (.MKV)

Ses Kodek: AC3


Audio Coding 3 (AC3)

sürüm


x264 | 720P | WEB-DL

Boyutlar


0,92 GB



 Cross 3



Aksiyon severler için hazırlanmış Cross 3 filminde Los Angeleste gerçekleşen büyük bir tehdit ve bu tehditi yok edebilmek için hazırlamış ekiplere mercek tutuluyor. Bu tehdit patlayıcı bir bombadır ve etkisi ölümcül olabilir. Bu yüzden bir zamanlar düşman olan kişiler bile bu tehditi durdurmak için güçlerini birleştirmesi gerekir...

Cross 3 (2019) (Cross: Rise of the Villains) Filmi Imdb'den 100 kişi tarafından oylandı ve 3,5 puan aldı. Bu film için editör puanı 4,0 olarak belirlendi. İyi Seyirler!

Teknik Detaylar

Kod :
General
Unique ID                                : 83765043558674498989331241193546631553 (0x3F048F8166B36AD163F350E35EE6C981)
Complete name                            : /root/Desktop/2/Cross.3.Rise.Of.The.Villains.2019.720p.WEB-DL.x264.TR.Filmbol.mkv
Format                                  : Matroska
Format version                          : Version 4 / Version 2
File size                                : 925 MiB
Duration                                : 1h 40mn
Overall bit rate                        : 1 293 Kbps
Movie name                              : Cross 3: Rise of The Villains (2019) - Filmbol.org
Encoded date                            : UTC 2020-04-26 12:27:06
Writing application                      : mkvmerge v8.8.0 ('Wind at my back') 64bit
Writing library                          : libebml v1.3.3 + libmatroska v1.4.4

Video
ID                                      : 1
Format                                  : AVC
Format/Info                              : Advanced Video Codec
Format profile                          : High@L4.1
Format settings, CABAC                  : Yes
Format settings, ReFrames                : 4 frames
Codec ID                                : V_MPEG4/ISO/AVC
Duration                                : 1h 40mn
Bit rate                                : 1 100 Kbps
Width                                    : 1 280 pixels
Height                                  : 714 pixels
Display aspect ratio                    : 16:9
Frame rate mode                          : Constant
Frame rate                              : 23.976 (24000/1001) fps
Color space                              : YUV
Chroma subsampling                      : 4:2:0
Bit depth                                : 8 bits
Scan type                                : Progressive
Bits/(Pixel*Frame)                      : 0.050
Stream size                              : 786 MiB (85%)
Title                                    : 720P - Filmbol.org
Writing library                          : x264 core 158
Encoding settings                        : cabac=1 / ref=4 / deblock=1:-1:-1 / analyse=0x3:0x133 / me=umh / subme=9 / psy=1 / psy_rd=1.00:0.15 / mixed_ref=1 / me_range=24 / chroma_me=1 / trellis=2 / 8x8dct=1 / cqm=0 / deadzone=21,11 / fast_pskip=0 / chroma_qp_offset=-3 / threads=18 / lookahead_threads=1 / sliced_threads=0 / nr=0 / decimate=1 / interlaced=0 / bluray_compat=0 / constrained_intra=0 / bframes=3 / b_pyramid=2 / b_adapt=2 / b_bias=0 / direct=3 / weightb=1 / open_gop=0 / weightp=2 / keyint=250 / keyint_min=23 / scenecut=40 / intra_refresh=0 / rc_lookahead=60 / rc=2pass / mbtree=1 / bitrate=1100 / ratetol=1.0 / qcomp=0.60 / qpmin=0 / qpmax=69 / qpstep=4 / cplxblur=20.0 / qblur=0.5 / vbv_maxrate=31250 / vbv_bufsize=31250 / nal_hrd=none / filler=0 / ip_ratio=1.40 / aq=1:1.00
Default                                  : Yes
Forced                                  : No

Audio
ID                                      : 2
Format                                  : AC-3
Format/Info                              : Audio Coding 3
Mode extension                          : CM (complete main)
Format settings, Endianness              : Big
Codec ID                                : A_AC3
Duration                                : 1h 40mn
Bit rate mode                            : Constant
Bit rate                                : 192 Kbps
Channel(s)                              : 2 channels
Channel positions                        : Front: L R
Sampling rate                            : 48.0 KHz
Frame rate                              : 31.250 fps (1536 spf)
Compression mode                        : Lossy
Stream size                              : 137 MiB (15%)
Title                                    : Türkçe
Language                                : Turkish
Default                                  : Yes
Forced                                  : No

Film Detayları


 Cross 3

 Cross 3

 Cross 3


Film Fragmanı


Film Detayları

Uptobox ile indir

1Fichier ile indir

1Fichier'den İndiremiyor musun? Tıklayın!


Mega ile indir

Bunun için üzgünüz ancak, bu linke sadece premium üyeler erişebilir.

Filmbol Cloud



Konu ile Alakalı Benzer Konular
Konular Yazar Yorumlar Okunma Son Yorum
Filmin Yayınlanma Tarihi: 2014
Lego Filmi (The Lego Movie) - 2014 - TR+ORG - 720P BroserBros 0 18 9 saat önce
Son Yorum: BroserBros
Filmin Yayınlanma Tarihi: 2014
Nuh: Büyük Tufan (Noah) - 2014 - TR+ORG - 720P BroserBros 0 18 9 saat önce
Son Yorum: BroserBros
Filmin Yayınlanma Tarihi: 2014
Yarının Sınırında (Edge of Tomorrow) - 2014 - TR+ORG - 720P BroserBros 0 39 , Saat: 20:41
Son Yorum: BroserBros
Filmin Yayınlanma Tarihi: 2014
300: Bir İmparatorluğun Yükselişi (300: Rise of an Empire - 300 Spartalı 2) - 2014 - TR+ORG - 720P BroserBros 0 61 04-06-2020, Saat: 13:39
Son Yorum: BroserBros
Filmin Yayınlanma Tarihi: 2020
Kirpi Sonic (Sonic the Hedgehog) - 2020 - TR+ORG - 720P BroserBros 0 63 04-06-2020, Saat: 12:57
Son Yorum: BroserBros

Hızlı Menü: