Hoşgeldin, Ziyaretçi: Giriş Yap Üye Ol


stats
Adblock'u kapattıysanız tıklayın.
Hoşgeldiniz!
Filmbol'u tercih ettiğiniz için teşekkürler, ancak ablock kullanarak devam edemezsiniz.
Merak etmeyin. Heryerden ardı ardına çıkan reklamlar görmeyeceksiniz :)

Sadece site içi 1 reklam göreceksin ve bu site gezintini etkilemeyecek.
Konuyu Oyla:
  • Derecelendirme: 0/5 - 0 oy
  • 1
  • 2
  • 3
  • 4
  • 5
Title: Colossal Türkçe Dublaj m720P İndir
Gösterim Stili
#1
Filmin Yayınlanma Tarihi: 2017 

indirme türü


Bulut + Premium

vizyon tarihi


21 Nisan 2017

Boyutlar


0,85

diller


[TR]

altyazilar


Yok [Eklenebilir]

Video Format: Mkv


Matroska (.MKV)

Video Detay


MPEG-4, 900 Kbps, 0,70 GB

imdb puanı


6,2 / 10,0 / 46,000

süre


109 dakika

Ses Kodek: AC3


Audio Coding 3 (AC3)

Ses Detay


192 Kbps, 2 Kanal, 150 Mb

rarsifresi


filmbol.org

Editör Puanı


6,4

Genislik Yukseklik


1280x534

sürüm


x264 | 720P



Film Detayları

Fantastik canavar filmi Colossal, Gloria isimli sıradan bir kadını temel alıyor. Gloria sakin hayatı kısa süre önce tepetaklak olmuş bir kadındır. İşini kaybetmiştir ve bu yetmez gibi sevgilisiyle birlikte yaşadıkları evden de sevgilisi tarafından atılmıştır. Çaresiz kadın New York'u arkasında bırakarak doğduğu kente geri döner. Ancak tam o zamanlarda Seul, Güney Kore'ye bir canavar saldırır. Bu dev canavar şehri yerle bir etmektedir. Gloria kısa sürede bu devasa yaratık ile kendisi arasında bir bağ olduğunu keşfeder. İşler kontrolden çıkmaya başladığında Gloria'nın kendisi gibi görünüşte önemsiz birinin nasıl olup da dünyanın kaderi üzerinde bu kadar büyük bir etkisi olabileceğini keşfetmesi gerekecektir...

Colossal Filmi İmdb'den 46.000 kişi tarafından oylandı ve 6,2 puan aldı. Bu film için editör puanı 6,4 olarak belirlendi. İyi Seyirler!


Teknik Detaylar

Kod:
General
Complete name                            : Colossal.2016.m720p.BLURAY.x264.TR.Filmbol.mkv
Format                                   : Matroska
Format version                           : Version 4 / Version 2
File size                                : 856 MiB
Duration                                 : 1 h 49 min
Overall bit rate                         : 1 093 kb/s
Movie name                               : Colossal / 1080P / Filmbol.org
Encoded date                             : UTC 2018-08-17 16:36:53
Writing application                      : mkvmerge v15.0.0 ('Duel with the Devil') 64-bit
Writing library                          : libebml v1.3.5 + libmatroska v1.4.7
Cover                                    : Yes
Attachments                              : cover.jpg

Video
ID                                       : 1
Format                                   : AVC
Format/Info                              : Advanced Video Codec
Format profile                           : High@L4.1
Format settings                          : CABAC / 4 Ref Frames
Format settings, CABAC                   : Yes
Format settings, ReFrames                : 4 frames
Codec ID                                 : V_MPEG4/ISO/AVC
Duration                                 : 1 h 49 min
Bit rate                                 : 900 kb/s
Width                                    : 1 280 pixels
Height                                   : 534 pixels
Display aspect ratio                     : 2.40:1
Original display aspect ratio            : 2.40:1
Frame rate mode                          : Constant
Frame rate                               : 23.976 (24000/1001) FPS
Color space                              : YUV
Chroma subsampling                       : 4:2:0
Bit depth                                : 8 bits
Scan type                                : Progressive
Bits/(Pixel*Frame)                       : 0.055
Stream size                              : 704 MiB (82%)
Title                                    : 720P - Filmbol.org
Writing library                          : x264 core 148
Default                                  : Yes
Forced                                   : No

Audio
ID                                       : 2
Format                                   : AC-3
Format/Info                              : Audio Coding 3
Codec ID                                 : A_AC3
Duration                                 : 1 h 49 min
Bit rate mode                            : Constant
Bit rate                                 : 192 kb/s
Channel(s)                               : 2 channels
Channel positions                        : Front: L R
Sampling rate                            : 48.0 kHz
Frame rate                               : 31.250 FPS (1536 SPF)
Bit depth                                : 16 bits
Compression mode                         : Lossy
Stream size                              : 150 MiB (18%)
Title                                    : Türkçe - Filmbol.org
Language                                 : Turkish
Service kind                             : Complete Main
Default                                  : Yes
Forced                                   : No



Film Detayları


Colossal

Colossal

Colossal

Colossal

Colossal



Film Fragmanı


Film Detayları

Mini 720P İndir


Mega linki şuan da gizli. Kullanıma açmak için konuya yorum yapın ve ardından sayfayı yenileyin. Ayrıca bu linki açtığınızda reklamsız olarak erişebileceğinizi unutmayın.

Mega


Uptobox ile indir

CloudRu ile indir

 
Cevapla
#2
çok iyi bir film izleyin mutlaka. harika
 
Cevapla
  


Hızlı Menü:


Browsing: 1 Ziyaretçi