Filmbol Forum Film İndir FHD - FULL HD v Coco (Koko) - 2017 - TR+ORG - FHD - x264
Moderatör Alımları Başladı! Başvuru yapmak için tıklayın.
Filmbol Premium'da %50'e varan indirim fırsatı!
Coco (Koko) - 2017 - TR+ORG - FHD - x264
BroserBros
Coco (Koko) - 2017 - TR+ORG - FHD - x264
0
144
  • Derecelendirme: 0/5 - 0 oy
  • 1
  • 2
  • 3
  • 4
  • 5
Konuyu Okuyanlar:1 Ziyaretçi
Şuan Online!
Filmin Yayınlanma Tarihi: 2017 
Şuan Online!
BroserBros Kurucu Admin
*******
Admin

Vizyon Tarihi


19 Ocak 2018

imdb puanı


8,4 / 340,000

süre


105 dakika

Editör Puanı


9,0 / 10

Video Format: Mkv


Matroska (.MKV)

Ses Kodek: AC3


Audio Coding 3 (AC3)

sürüm


x264|BluRay

Boyutlar


1,87 GB



 Coco



Coco (Koko) 12 yaşındaki Miguel'in heyecan verici hikayesini konu ediniyor. Miguel ailesinin aksine müziği çok seven bir meksikalıdır. En sevdiği kahramanı ise Ernesto de la Cruzdur fakat maalesef hayatta değildir ve onunla asla görüşemeyecektir. Ta ki Ernestonun gitarını bulup tellerine dokunana kadar...

Coco (2017) (Koko) Filmi Imdb'den 340,000 kişi tarafından oylandı ve 8,4 puan aldı. Bu film için editör puanı 9,0 olarak belirlendi. İyi Seyirler!

Teknik Detaylar

Kod :
General
Unique ID                                : 332451183998107448917984533484543308148 (0xFA1BC4DF356DD4EC6B17A25D93E27174)
Complete name                            : /root/Desktop/2/Coco.2017.FHD.BluRay.x264.TR.ENG.Filmbol.mkv
Format                                  : Matroska
Format version                          : Version 4 / Version 2
File size                                : 7.93 GiB
Duration                                : 1h 45mn
Overall bit rate                        : 10.8 Mbps
Movie name                              : Coco - Koko - 2017 | Filmbol.org
Encoded date                            : UTC 2020-05-19 10:02:37
Writing application                      : mkvmerge v8.8.0 ('Wind at my back') 64bit
Writing library                          : libebml v1.3.3 + libmatroska v1.4.4

Video
ID                                      : 1
Format                                  : AVC
Format/Info                              : Advanced Video Codec
Format profile                          : High@L4.1
Format settings, CABAC                  : Yes
Format settings, ReFrames                : 5 frames
Codec ID                                : V_MPEG4/ISO/AVC
Duration                                : 1h 45mn
Bit rate                                : 5 938 Kbps
Width                                    : 1 920 pixels
Height                                  : 808 pixels
Display aspect ratio                    : 2.40:1
Frame rate mode                          : Constant
Frame rate                              : 23.976 (24000/1001) fps
Color space                              : YUV
Chroma subsampling                      : 4:2:0
Bit depth                                : 8 bits
Scan type                                : Progressive
Bits/(Pixel*Frame)                      : 0.160
Stream size                              : 4.36 GiB (55%)
Title                                    : FHD - Filmbol.org
Writing library                          : x264 core 155 r2901 7d0ff22
Encoding settings                        : cabac=1 / ref=5 / deblock=1:2:1 / analyse=0x3:0x133 / me=umh / subme=8 / psy=1 / psy_rd=1.00:0.00 / mixed_ref=1 / me_range=16 / chroma_me=1 / trellis=1 / 8x8dct=1 / cqm=0 / deadzone=21,11 / fast_pskip=0 / chroma_qp_offset=-2 / threads=25 / lookahead_threads=4 / sliced_threads=0 / nr=0 / decimate=1 / interlaced=0 / bluray_compat=0 / constrained_intra=0 / bframes=3 / b_pyramid=2 / b_adapt=1 / b_bias=0 / direct=3 / weightb=1 / open_gop=0 / weightp=2 / keyint=250 / keyint_min=23 / scenecut=40 / intra_refresh=0 / rc_lookahead=50 / rc=2pass / mbtree=1 / bitrate=5938 / ratetol=1.0 / qcomp=0.60 / qpmin=0 / qpmax=69 / qpstep=4 / cplxblur=20.0 / qblur=0.5 / vbv_maxrate=62500 / vbv_bufsize=78125 / nal_hrd=none / filler=0 / ip_ratio=1.40 / aq=1:1.00
Default                                  : Yes
Forced                                  : No

Audio #1
ID                                      : 2
Format                                  : AC-3
Format/Info                              : Audio Coding 3
Mode extension                          : CM (complete main)
Format settings, Endianness              : Big
Codec ID                                : A_AC3
Duration                                : 1h 45mn
Bit rate mode                            : Constant
Bit rate                                : 384 Kbps
Channel(s)                              : 6 channels
Channel positions                        : Front: L C R, Side: L R, LFE
Sampling rate                            : 48.0 KHz
Frame rate                              : 31.250 fps (1536 spf)
Compression mode                        : Lossy
Stream size                              : 288 MiB (4%)
Title                                    : Türkçe - Filmbol.org
Language                                : Turkish
Default                                  : No
Forced                                  : No

Audio #2
ID                                      : 3
Format                                  : DTS
Format/Info                              : Digital Theater Systems
Format profile                          : MA / Core
Mode                                    : 16
Format settings, Endianness              : Big
Codec ID                                : A_DTS
Duration                                : 1h 45mn
Bit rate mode                            : Variable / Constant
Bit rate                                : 4 478 Kbps / 1 509 Kbps
Channel(s)                              : 8 channels / 6 channels
Channel positions                        : Front: L C R, Side: L R, Back: L R, LFE / Front: L C R, Side: L R, LFE
Sampling rate                            : 48.0 KHz
Frame rate                              : 93.750 fps (512 spf)
Bit depth                                : 24 bits
Compression mode                        : Lossless / Lossy
Stream size                              : 3.29 GiB (41%)
Title                                    : İngilizce
Language                                : English
Default                                  : Yes
Forced                                  : No

Text
ID                                      : 4
Format                                  : UTF-8
Codec ID                                : S_TEXT/UTF8
Codec ID/Info                            : UTF-8 Plain Text
Duration                                : 1h 34mn
Bit rate                                : 68 bps
Count of elements                        : 1164
Stream size                              : 47.4 KiB (0%)
Title                                    : English-SRT
Language                                : English
Default                                  : Yes
Forced                                  : No

Film Detayları


 Coco

 Coco

 Coco


Film Fragmanı


Film Detayları

Uptobox ile indir

1Fichier ile indir

1Fichier'den İndiremiyor musun? Tıklayın!


Mega ile indir

Bunun için üzgünüz ancak, bu linke sadece premium üyeler erişebilir.

Filmbol Cloud



Konu ile Alakalı Benzer Konular
Konular Yazar Yorumlar Okunma Son Yorum
Filmin Yayınlanma Tarihi: 2018
Gözbebeğim (Pupille) - 2018 - TR+ORG - FHD - x264 BroserBros 0 3 1 saat önce
Son Yorum: BroserBros
Filmin Yayınlanma Tarihi: 2019
Umut Vadisi (Hope Gap) - 2019 - TR+ORG - FHD - x264 BroserBros 0 3 1 saat önce
Son Yorum: BroserBros
Filmin Yayınlanma Tarihi: 2019
Cep Herkülü: Naim Süleymanoğlu (Cep Herkülü: Naim Süleymanoğlu) - 2019 - TR+ORG - FHD - x264 BroserBros 0 77 15-09-2020, Saat: 21:51
Son Yorum: BroserBros
Filmin Yayınlanma Tarihi: 2020
Berlin, Berlin (Berlin, Berlin) - 2020 - TR+ORG - FHD - x264 BroserBros 0 75 15-09-2020, Saat: 18:18
Son Yorum: BroserBros
Filmin Yayınlanma Tarihi: 2020
Malibu Rescue: Yeni Dalga (Malibu Rescue: The Next Wave) - 2020 - TR+ORG - FHD - x264 BroserBros 0 124 13-09-2020, Saat: 20:55
Son Yorum: BroserBros

Hızlı Menü: