Filmbol Forum Film İndir 3D v Coco (Koko) - 2017 - TR+ORG - 3D
Moderatör Alımları Başladı! Başvuru yapmak için tıklayın.
Filmbol Premium'da %50'e varan indirim fırsatı!
Coco (Koko) - 2017 - TR+ORG - 3D
BroserBros
Coco (Koko) - 2017 - TR+ORG - 3D
0
198
  • Derecelendirme: 0/5 - 0 oy
  • 1
  • 2
  • 3
  • 4
  • 5
Konuyu Okuyanlar:1 Ziyaretçi
Şuan Offine!
Filmin Yayınlanma Tarihi: 2017 
Şuan Offine!
BroserBros Kurucu Admin
*******
Admin

Vizyon Tarihi


19 Ocak 2018

imdb puanı


8,4 / 340,000

süre


105 dakika

Editör Puanı


9,0 / 10

Video Format: Mkv


Matroska (.MKV)

Ses Kodek: AC3


Audio Coding 3 (AC3)

sürüm


x264 | 3D | BluRay

Boyutlar


2,03 GB



 Coco



Coco (Koko) 12 yaşındaki Miguel'in heyecan verici hikayesini konu ediniyor. Miguel ailesinin aksine müziği çok seven bir meksikalıdır. En sevdiği kahramanı ise Ernesto de la Cruzdur fakat maalesef hayatta değildir ve onunla asla görüşemeyecektir. Ta ki Ernestonun gitarını bulup tellerine dokunana kadar...

Coco (2017) (Koko) Filmi Imdb'den 340,000 kişi tarafından oylandı ve 8,4 puan aldı. Bu film için editör puanı 9,0 olarak belirlendi. İyi Seyirler!

Teknik Detaylar

Kod :
General
Unique ID                                : 282523350391918167743702247786885902566 (0xD48C049EFAD88A99FEB7B69A753F70E6)
Complete name                            : /root/Desktop/2/Coco.2017.3D.HSBS.BluRay.x264.TR.ENG.Filmbol.mkv
Format                                  : Matroska
Format version                          : Version 4 / Version 2
File size                                : 2.03 GiB
Duration                                : 1h 45mn
Overall bit rate                        : 2 763 Kbps
Movie name                              : Coco - Koko - 2017 | Filmbol.org
Encoded date                            : UTC 2020-05-19 10:13:13
Writing application                      : mkvmerge v8.8.0 ('Wind at my back') 64bit
Writing library                          : libebml v1.3.3 + libmatroska v1.4.4

Video
ID                                      : 1
Format                                  : AVC
Format/Info                              : Advanced Video Codec
Format profile                          : High@L4.1
Format settings, CABAC                  : Yes
Format settings, ReFrames                : 4 frames
Codec ID                                : V_MPEG4/ISO/AVC
Duration                                : 1h 45mn
Bit rate                                : 2 250 Kbps
Width                                    : 1 920 pixels
Height                                  : 800 pixels
Display aspect ratio                    : 2.40:1
Frame rate mode                          : Constant
Frame rate                              : 23.976 (24000/1001) fps
Color space                              : YUV
Chroma subsampling                      : 4:2:0
Bit depth                                : 8 bits
Scan type                                : Progressive
Bits/(Pixel*Frame)                      : 0.061
Stream size                              : 1.65 GiB (81%)
Title                                    : 3D - Filmbol.org
Writing library                          : x264 core 155
Encoding settings                        : cabac=1 / ref=4 / deblock=1:-1:-1 / analyse=0x3:0x133 / me=umh / subme=9 / psy=1 / psy_rd=1.00:0.15 / mixed_ref=1 / me_range=24 / chroma_me=1 / trellis=2 / 8x8dct=1 / cqm=0 / deadzone=21,11 / fast_pskip=0 / chroma_qp_offset=-3 / threads=18 / lookahead_threads=1 / sliced_threads=0 / nr=0 / decimate=1 / interlaced=0 / bluray_compat=0 / constrained_intra=0 / bframes=3 / b_pyramid=2 / b_adapt=2 / b_bias=0 / direct=3 / weightb=1 / open_gop=0 / weightp=2 / keyint=250 / keyint_min=23 / scenecut=40 / intra_refresh=0 / rc_lookahead=60 / rc=2pass / mbtree=1 / bitrate=2250 / ratetol=1.0 / qcomp=0.60 / qpmin=0 / qpmax=69 / qpstep=4 / cplxblur=20.0 / qblur=0.5 / vbv_maxrate=31250 / vbv_bufsize=31250 / nal_hrd=none / filler=0 / ip_ratio=1.40 / aq=1:1.00
Default                                  : Yes
Forced                                  : No

Audio #1
ID                                      : 2
Format                                  : AC-3
Format/Info                              : Audio Coding 3
Mode extension                          : CM (complete main)
Format settings, Endianness              : Big
Codec ID                                : A_AC3
Duration                                : 1h 45mn
Bit rate mode                            : Constant
Bit rate                                : 384 Kbps
Channel(s)                              : 6 channels
Channel positions                        : Front: L C R, Side: L R, LFE
Sampling rate                            : 48.0 KHz
Frame rate                              : 31.250 fps (1536 spf)
Compression mode                        : Lossy
Delay relative to video                  : -43ms
Stream size                              : 288 MiB (14%)
Title                                    : Türkçe - Filmbol.org
Language                                : Turkish
Default                                  : Yes
Forced                                  : No

Audio #2
ID                                      : 3
Format                                  : AAC
Format/Info                              : Advanced Audio Codec
Format profile                          : LC
Codec ID                                : A_AAC
Duration                                : 1h 45mn
Bit rate                                : 126 Kbps
Channel(s)                              : 2 channels
Channel positions                        : Front: L R
Sampling rate                            : 48.0 KHz
Frame rate                              : 46.875 fps (1024 spf)
Compression mode                        : Lossy
Delay relative to video                  : -43ms
Stream size                              : 95.0 MiB (5%)
Default                                  : No
Forced                                  : No

Film Detayları


 Coco

 Coco

 Coco


Film Fragmanı


Film Detayları

Uptobox ile indir

1Fichier ile indir

1Fichier'den İndiremiyor musun? Tıklayın!


Mega ile indir

Bunun için üzgünüz ancak, bu linke sadece premium üyeler erişebilir.

Filmbol Cloud



Konu ile Alakalı Benzer Konular
Konular Yazar Yorumlar Okunma Son Yorum
Filmin Yayınlanma Tarihi: 2017
Çılgın Hırsız 3 (Despicable Me 3) - 2017 - TR+ORG - 3D BroserBros 0 159 11-06-2020, Saat: 20:38
Son Yorum: BroserBros
Filmin Yayınlanma Tarihi: 2017
Arabalar 3 (Cars 3) - 2017 - TR+ORG - 3D BroserBros 0 167 14-05-2020, Saat: 22:53
Son Yorum: BroserBros
Filmin Yayınlanma Tarihi: 2017
Kral Arthur: Kılıç Efsanesi (King Arthur: Legend of the Sword) - 2017 - TR+ORG - 3D BroserBros 0 154 14-05-2020, Saat: 22:41
Son Yorum: BroserBros
Filmin Yayınlanma Tarihi: 2017
Justice League: Adalet Birliği (Justice League) - 2017 - TR+ORG - 3D BroserBros 0 144 14-05-2020, Saat: 22:09
Son Yorum: BroserBros
Filmin Yayınlanma Tarihi: 2017
Uzaydan Gelen Fırtına (Geostorm) - 2017 - TR+ORG - 3D BroserBros 0 208 13-05-2020, Saat: 22:34
Son Yorum: BroserBros

Hızlı Menü: