Filmbol Forum Film İndir BRRip XviD v Coco (Koko) - 2017 - TR - BRRip XviD
Moderatör Alımları Başladı! Başvuru yapmak için tıklayın.
Filmbol Premium'da %50'e varan indirim fırsatı!
Coco (Koko) - 2017 - TR - BRRip XviD
BroserBros
Coco (Koko) - 2017 - TR - BRRip XviD
0
130
  • Derecelendirme: 0/5 - 0 oy
  • 1
  • 2
  • 3
  • 4
  • 5
Konuyu Okuyanlar:1 Ziyaretçi
Şuan Online!
Filmin Yayınlanma Tarihi: 2017 
Şuan Online!
BroserBros Kurucu Admin
*******
Admin

Vizyon Tarihi


19 Ocak 2018

imdb puanı


8,4 / 340,000

süre


105 dakika

Editör Puanı


9,0 / 10

Video Format: Avi


Audio Video Interleave (.AVI)

Ses Kodek: MP3


MPEG-1 Audio Layer III (MP3)

sürüm


h263 | BRRip XviD

Boyutlar


1,31 GB



 Coco



Coco (Koko) 12 yaşındaki Miguel'in heyecan verici hikayesini konu ediniyor. Miguel ailesinin aksine müziği çok seven bir meksikalıdır. En sevdiği kahramanı ise Ernesto de la Cruzdur fakat maalesef hayatta değildir ve onunla asla görüşemeyecektir. Ta ki Ernestonun gitarını bulup tellerine dokunana kadar...

Coco (2017) (Koko) Filmi Imdb'den 340,000 kişi tarafından oylandı ve 8,4 puan aldı. Bu film için editör puanı 9,0 olarak belirlendi. İyi Seyirler!

Teknik Detaylar

Kod :
General
Complete name                            : /root/Desktop/2/Coco.2017.BRRip.XviD.TR.Filmbol.avi
Format                                  : AVI
Format/Info                              : Audio Video Interleave
File size                                : 1.31 GiB
Duration                                : 1h 45mn
Overall bit rate                        : 1 792 Kbps
Movie name                              : RARBG - Coco.2017.BRRip.XviD.AC3-XVID
Writing application                      : VirtualDubMod 1.5.10.2 (build 2540/release)
Writing library                          : VirtualDubMod build 2540/release
Comment                                  : RARBG - Coco.2017.BRRip.XviD.AC3-XVID

Video
ID                                      : 0
Format                                  : MPEG-4 Visual
Format profile                          : Simple@L5
Format settings, BVOP                    : No
Format settings, QPel                    : No
Format settings, GMC                    : No warppoints
Format settings, Matrix                  : Default (H.263)
Codec ID                                : XVID
Codec ID/Hint                            : XviD
Duration                                : 1h 45mn
Bit rate                                : 1 595 Kbps
Width                                    : 720 pixels
Height                                  : 302 pixels
Display aspect ratio                    : 2.40:1
Frame rate                              : 23.976 fps
Color space                              : YUV
Chroma subsampling                      : 4:2:0
Bit depth                                : 8 bits
Scan type                                : Progressive
Compression mode                        : Lossy
Bits/(Pixel*Frame)                      : 0.306
Stream size                              : 1.17 GiB (89%)
Writing library                          : Lavc57.107.100

Audio
ID                                      : 1
Format                                  : AC-3
Format/Info                              : Audio Coding 3
Mode extension                          : CM (complete main)
Format settings, Endianness              : Big
Codec ID                                : 2000
Duration                                : 1h 45mn
Bit rate mode                            : Constant
Bit rate                                : 192 Kbps
Channel(s)                              : 6 channels
Channel positions                        : Front: L C R, Side: L R, LFE
Sampling rate                            : 48.0 KHz
Frame rate                              : 31.250 fps (1536 spf)
Compression mode                        : Lossy
Delay relative to video                  : 1s 0ms
Stream size                              : 144 MiB (11%)
Alignment                                : Split accross interleaves
Interleave, duration                    : 10922 ms (261.87 video frames)

Film Detayları


 Coco

 Coco

 Coco


Film Fragmanı


Film Detayları


Uptobox ile indir

1Fichier ile indir

1Fichier'den İndiremiyor musun? Tıklayın!


Mega ile indir

Bunun için üzgünüz ancak, bu linke sadece premium üyeler erişebilir.

Filmbol Cloud



Konu ile Alakalı Benzer Konular
Konular Yazar Yorumlar Okunma Son Yorum
Filmin Yayınlanma Tarihi: 2018
Gözbebeğim (Pupille) - 2018 - TR - BRRip XviD BroserBros 0 2 53 dakika önce
Son Yorum: BroserBros
Filmin Yayınlanma Tarihi: 2019
Umut Vadisi (Hope Gap) - 2019 - TR - BRRip XviD BroserBros 0 3 1 saat önce
Son Yorum: BroserBros
Filmin Yayınlanma Tarihi: 2019
Cep Herkülü: Naim Süleymanoğlu (Cep Herkülü: Naim Süleymanoğlu) - 2019 - TR - BRRip XviD BroserBros 0 84 15-09-2020, Saat: 21:51
Son Yorum: BroserBros
Filmin Yayınlanma Tarihi: 2020
Berlin, Berlin (Berlin, Berlin) - 2020 - TR - BRRip XviD BroserBros 0 80 15-09-2020, Saat: 18:15
Son Yorum: BroserBros
Filmin Yayınlanma Tarihi: 2020
Malibu Rescue: Yeni Dalga (Malibu Rescue: The Next Wave) - 2020 - TR - BRRip XviD BroserBros 0 133 13-09-2020, Saat: 20:54
Son Yorum: BroserBros

Hızlı Menü: