Hoşgeldin, Ziyaretçi: Giriş Yap Üye Ol


Konuyu Oyla:
  • Derecelendirme: 0/5 - 0 oy
  • 1
  • 2
  • 3
  • 4
  • 5
Title: Climax (2018) Türkçe Dublaj Brrip Xvid İndir
Gösterim Stili
#1
Filmin Yayınlanma Tarihi: 2018 

indirme türü


Bulut + Premium

vizyon tarihi


02 Kasım 2018

Boyutlar


0,98

diller


[TR]

altyazilar


Yok [Eklenebilir]

Video Format: Avi


Audio Video Interleave (.AVI)

Video Detay


MPEG-4, 1291 Kbps, 0,89GB

imdb puanı


7,2 / 10,0 / 30,000

süre


97 dakika

Ses Kodek: MP3


MPEG-1 Audio Layer III (MP3)

Ses Detay


128 Kbps, 2 Kanal, 88Mb

Editör Puanı


6,2

Genislik Yukseklik


720-300

sürüm


h263 | Brrip Xvid




Climax


Film Detayları

Climax, Fransa’daki köhne bir dans kulübünde geçen uzun bir geceyi takip ediyor. 90’ların ortasında 20 dansçı, üç günlük bir prova için ormandaki yatılı bir okulda bir araya gelir. Birbirini yeni tanıyan ekip provalar dışında da eğlenceli vakit geçirirler. Provalar bitmesinin ardından ayrılmadan önce son bir parti düzenlerler. Fakat içkilerin sayısı arttıkça içlerinden bazıları tuhaf davranışlar sergilemeye başlar. Gençler bir süre sonra tamamen kontrollerini kaybeder. Artık onların içine düştükleri girdaba direnmeleri neredeyse imkansızdır. Müzik, dans, gerilim ve cinsellik dolu bu ortamda kimileri cennette olduğunu hissederken kimileri içinse durum cehennemden farksızdır. Filmin yönetmen ve senarsitliğini “Dönüş Yok”, “Boşluk” ve “Aşk” gibi filmlerle tanınan Arjantinli yönetmen Gaspar Noe üstleniyor. Filmin kadrosunda “Kingsman: Gizli Servis” ve “Mumya” filmlerinde izlediğimiz Sofia Boutella’nın yanı sıra Romain Guillermic, Souheila Yacoub, Kiddy Smile, Claude Gajan Maull, Giselle Palmer gibi isimler yer alıyor. Görüntü yönetmenliğini Benoît Debie’nin üstlendiği filmin prömiyeri 71. Cannes Film Festivali’nde gerçekleşti.
 
Climax (2018) Filmi Imdb'den 30,000 kişi tarafından oylandı ve 7,2 puan aldı. Bu film için editör puanı 6,2 olarak belirlendi. İyi Seyirler!


Teknik Detaylar

Kod:
General
Complete name                            : Climax.2018.BRRip.XViD.TR.Filmbol.avi
Format                                   : AVI
Format/Info                              : Audio Video Interleave
File size                                : 988 MiB
Duration                                 : 1h 36mn
Overall bit rate                         : 1 432 Kbps

Video
ID                                       : 0
Format                                   : MPEG-4 Visual
Format profile                           : Advanced Simple@L5
Format settings, BVOP                    : 2
Format settings, QPel                    : No
Format settings, GMC                     : No warppoints
Format settings, Matrix                  : Default (MPEG)
Codec ID                                 : XVID
Codec ID/Hint                            : XviD
Duration                                 : 1h 36mn
Bit rate                                 : 1 291 Kbps
Width                                    : 720 pixels
Height                                   : 300 pixels
Display aspect ratio                     : 2.40:1
Frame rate                               : 23.976 (23976/1000) fps
Color space                              : YUV
Chroma subsampling                       : 4:2:0
Bit depth                                : 8 bits
Scan type                                : Progressive
Compression mode                         : Lossy
Bits/(Pixel*Frame)                       : 0.249
Stream size                              : 891 MiB (90%)
Writing library                          : XviD 64

Audio
ID                                       : 1
Format                                   : MPEG Audio
Format version                           : Version 1
Format profile                           : Layer 3
Mode                                     : Joint stereo
Mode extension                           : MS Stereo
Codec ID                                 : 55
Codec ID/Hint                            : MP3
Duration                                 : 1h 36mn
Bit rate mode                            : Constant
Bit rate                                 : 128 Kbps
Channel(s)                               : 2 channels
Sampling rate                            : 48.0 KHz
Compression mode                         : Lossy
Stream size                              : 88.3 MiB (9%)
Alignment                                : Aligned on interleaves
Interleave, duration                     : 24 ms (0.58 video frame)



Film Detayları


Climax

Climax

Climax


Film Fragmanı


Film Detayları

Brrip İndir


LetsUpload ile indir


Mega ile indir

jbhg
 
Cevapla
#2
Teşekkürler....
 
Cevapla
#3
Tesekkürler
 
Cevapla
  


Konu ile Alakalı Benzer Konular
Konular Yazar Yorumlar Okunma Son Yorum
Filmin Yayınlanma Tarihi: 2020 Konut (The Occupant) Türkçe Dublaj BRRip XviD indir BroserBros 0 10 3 saat önce
Son Yorum: BroserBros
Filmin Yayınlanma Tarihi: 2014 Ölüm Alfabesi (Ouija) Türkçe Dublaj BRRip XviD indir BroserBros 5 185 14-03-2020, Saat: 09:12
Son Yorum: filmbolcu
Filmin Yayınlanma Tarihi: 2018 Seni Hala Görüyorum (I Still See You) Türkçe Dublaj BRRip XviD indir BroserBros 1 135 10-03-2020, Saat: 22:55
Son Yorum: badboys755
Filmin Yayınlanma Tarihi: 2019 Şeytanın Arabası 2 (The Car: Road to Revenge) Türkçe Dublaj BRRip XviD indir BroserBros 0 56 09-03-2020, Saat: 22:39
Son Yorum: BroserBros
Filmin Yayınlanma Tarihi: 2016 Kapının Diğer Tarafı (The Other Side of the Door) Türkçe Dublaj Brrip-Xvid İndir BroserBros 1 962 06-03-2020, Saat: 12:33
Son Yorum: BroserBros

Hızlı Menü:


Browsing: 1 Ziyaretçi