Filmbol Forum Film İndir BRRip XviD v Climax (2018) Türkçe Dublaj Brrip Xvid İndir
Filmbol'da moderatör olmak ister misiniz? Bizimle iletişime geçmek için tıklayın!
Climax (2018) Türkçe Dublaj Brrip Xvid İndir
BroserBros
Climax (2018) Türkçe Dublaj Brrip Xvid İndir
2
625
  • Derecelendirme: 0/5 - 0 oy
  • 1
  • 2
  • 3
  • 4
  • 5
Konuyu Okuyanlar:1 Ziyaretçi
Şuan Online!
Filmin Yayınlanma Tarihi: 2018 
Şuan Online!
BroserBros Kurucu Admin
*******
Admin

indirme türü


Bulut + Premium

Vizyon Tarihi


02 Kasım 2018

Boyutlar


0,98

diller


[TR]

altyazilar


Yok [Eklenebilir]

Video Format: Avi


Audio Video Interleave (.AVI)

Video Detay


MPEG-4, 1291 Kbps, 0,89GB

imdb puanı


7,2 / 10,0 / 30,000

süre


97 dakika

Ses Kodek: MP3


MPEG-1 Audio Layer III (MP3)

Ses Detay


128 Kbps, 2 Kanal, 88Mb

Editör Puanı


6,2

Genislik Yukseklik


720-300

sürüm


h263 | Brrip Xvid




Climax


Film Detayları

Climax, Fransa’daki köhne bir dans kulübünde geçen uzun bir geceyi takip ediyor. 90’ların ortasında 20 dansçı, üç günlük bir prova için ormandaki yatılı bir okulda bir araya gelir. Birbirini yeni tanıyan ekip provalar dışında da eğlenceli vakit geçirirler. Provalar bitmesinin ardından ayrılmadan önce son bir parti düzenlerler. Fakat içkilerin sayısı arttıkça içlerinden bazıları tuhaf davranışlar sergilemeye başlar. Gençler bir süre sonra tamamen kontrollerini kaybeder. Artık onların içine düştükleri girdaba direnmeleri neredeyse imkansızdır. Müzik, dans, gerilim ve cinsellik dolu bu ortamda kimileri cennette olduğunu hissederken kimileri içinse durum cehennemden farksızdır. Filmin yönetmen ve senarsitliğini “Dönüş Yok”, “Boşluk” ve “Aşk” gibi filmlerle tanınan Arjantinli yönetmen Gaspar Noe üstleniyor. Filmin kadrosunda “Kingsman: Gizli Servis” ve “Mumya” filmlerinde izlediğimiz Sofia Boutella’nın yanı sıra Romain Guillermic, Souheila Yacoub, Kiddy Smile, Claude Gajan Maull, Giselle Palmer gibi isimler yer alıyor. Görüntü yönetmenliğini Benoît Debie’nin üstlendiği filmin prömiyeri 71. Cannes Film Festivali’nde gerçekleşti.
 
Climax (2018) Filmi Imdb'den 30,000 kişi tarafından oylandı ve 7,2 puan aldı. Bu film için editör puanı 6,2 olarak belirlendi. İyi Seyirler!


Teknik Detaylar

Kod :
General
Complete name                            : Climax.2018.BRRip.XViD.TR.Filmbol.avi
Format                                   : AVI
Format/Info                              : Audio Video Interleave
File size                                : 988 MiB
Duration                                 : 1h 36mn
Overall bit rate                         : 1 432 Kbps

Video
ID                                       : 0
Format                                   : MPEG-4 Visual
Format profile                           : Advanced Simple@L5
Format settings, BVOP                    : 2
Format settings, QPel                    : No
Format settings, GMC                     : No warppoints
Format settings, Matrix                  : Default (MPEG)
Codec ID                                 : XVID
Codec ID/Hint                            : XviD
Duration                                 : 1h 36mn
Bit rate                                 : 1 291 Kbps
Width                                    : 720 pixels
Height                                   : 300 pixels
Display aspect ratio                     : 2.40:1
Frame rate                               : 23.976 (23976/1000) fps
Color space                              : YUV
Chroma subsampling                       : 4:2:0
Bit depth                                : 8 bits
Scan type                                : Progressive
Compression mode                         : Lossy
Bits/(Pixel*Frame)                       : 0.249
Stream size                              : 891 MiB (90%)
Writing library                          : XviD 64

Audio
ID                                       : 1
Format                                   : MPEG Audio
Format version                           : Version 1
Format profile                           : Layer 3
Mode                                     : Joint stereo
Mode extension                           : MS Stereo
Codec ID                                 : 55
Codec ID/Hint                            : MP3
Duration                                 : 1h 36mn
Bit rate mode                            : Constant
Bit rate                                 : 128 Kbps
Channel(s)                               : 2 channels
Sampling rate                            : 48.0 KHz
Compression mode                         : Lossy
Stream size                              : 88.3 MiB (9%)
Alignment                                : Aligned on interleaves
Interleave, duration                     : 24 ms (0.58 video frame)



Film Detayları


Climax

Climax

Climax


Film Fragmanı


Film Detayları

Brrip İndir


LetsUpload ile indir


Mega ile indir

jbhg
Şuan Offine!
Şuan Offine!
komador06 Süper Üye
***
Super Üye

  • Konular0
  • Mesajlar28
  • Rep puanı 0
Teşekkürler....
Şuan Offine!
Şuan Offine!
kartal Uzman Üye
**
Uzman Üye

  • Konular0
  • Mesajlar21
  • Rep puanı 0
Tesekkürler


Konu ile Alakalı Benzer Konular
Konular Yazar Yorumlar Okunma Son Yorum
Filmin Yayınlanma Tarihi: 2019
Hain (The Traitor / Il traditore) - 2019 - TR - BRRip XviD BroserBros 0 26 , Saat: 16:04
Son Yorum: BroserBros
Filmin Yayınlanma Tarihi: 2020
All Together Now (All Together Now) - 2020 - TR - BRRip XviD BroserBros 0 21 , Saat: 15:49
Son Yorum: BroserBros
Filmin Yayınlanma Tarihi: 2018
Vita & Virginia (Vita ve Virginia) - 2018 - TR - BRRip XviD BroserBros 0 20 , Saat: 15:31
Son Yorum: BroserBros
Filmin Yayınlanma Tarihi: 2019
Ibiza (Ibiza) - 2019 - TR - BRRip XviD BroserBros 0 23 , Saat: 14:56
Son Yorum: BroserBros
Filmin Yayınlanma Tarihi: 2018
Yaramazlar Takımı: Zaman Yolcuları (Smeshariki. Dezha vyu) - 2018 - TR - BRRip XviD BroserBros 0 32 25-11-2020, Saat: 17:59
Son Yorum: BroserBros

Hızlı Menü: