Hoşgeldin, Ziyaretçi: Giriş Yap Üye Ol


Konuyu Oyla:
  • Derecelendirme: 0/5 - 0 oy
  • 1
  • 2
  • 3
  • 4
  • 5
Title: Climax (2018) Türkçe Dublaj BLURAY m720P İndir
Gösterim Stili
#1
Filmin Yayınlanma Tarihi: 2018 

indirme türü


Bulut + Premium

vizyon tarihi


02 Kasım 2018

Boyutlar


0,85

diller


[TR]

altyazilar


Yok [Eklenebilir]

Video Format: Mkv


Matroska (.MKV)

Video Detay


MPEG-4, 1291 Kbps, 0,89GB

imdb puanı


7,2 / 10,0 / 30,000

süre


97 dakika

Ses Kodek: AC3


Audio Coding 3 (AC3)

Ses Detay


192 Kbps, 2 Kanal, 133Mb

Editör Puanı


6,2

Genislik Yukseklik


1280-534

sürüm


x264 | 720P




Climax


Film Detayları

Climax, Fransa’daki köhne bir dans kulübünde geçen uzun bir geceyi takip ediyor. 90’ların ortasında 20 dansçı, üç günlük bir prova için ormandaki yatılı bir okulda bir araya gelir. Birbirini yeni tanıyan ekip provalar dışında da eğlenceli vakit geçirirler. Provalar bitmesinin ardından ayrılmadan önce son bir parti düzenlerler. Fakat içkilerin sayısı arttıkça içlerinden bazıları tuhaf davranışlar sergilemeye başlar. Gençler bir süre sonra tamamen kontrollerini kaybeder. Artık onların içine düştükleri girdaba direnmeleri neredeyse imkansızdır. Müzik, dans, gerilim ve cinsellik dolu bu ortamda kimileri cennette olduğunu hissederken kimileri içinse durum cehennemden farksızdır. Filmin yönetmen ve senarsitliğini “Dönüş Yok”, “Boşluk” ve “Aşk” gibi filmlerle tanınan Arjantinli yönetmen Gaspar Noe üstleniyor. Filmin kadrosunda “Kingsman: Gizli Servis” ve “Mumya” filmlerinde izlediğimiz Sofia Boutella’nın yanı sıra Romain Guillermic, Souheila Yacoub, Kiddy Smile, Claude Gajan Maull, Giselle Palmer gibi isimler yer alıyor. Görüntü yönetmenliğini Benoît Debie’nin üstlendiği filmin prömiyeri 71. Cannes Film Festivali’nde gerçekleşti.
 
Climax (2018) Filmi Imdb'den 30,000 kişi tarafından oylandı ve 7,2 puan aldı. Bu film için editör puanı 6,2 olarak belirlendi. İyi Seyirler!


Teknik Detaylar

Kod:
General
Complete name                            : Climax.2018.m720p.BLURAY.x264.TR.Filmbol.mkv
Format                                   : Matroska
Format version                           : Version 4 / Version 2
File size                                : 858 MiB
Duration                                 : 1h 36mn
Overall bit rate                         : 1 243 Kbps
Movie name                               : Climax (2018) - Filmbol.org
Encoded date                             : UTC 2019-08-10 12:38:02
Writing application                      : mkvmerge v35.0.0 ('All The Love In The World') 64-bit
Writing library                          : libebml v1.3.9 + libmatroska v1.5.2

Video
ID                                       : 1
Format                                   : AVC
Format/Info                              : Advanced Video Codec
Format profile                           : High@L4.1
Format settings, CABAC                   : Yes
Format settings, ReFrames                : 4 frames
Codec ID                                 : V_MPEG4/ISO/AVC
Duration                                 : 1h 36mn
Bit rate                                 : 1 050 Kbps
Width                                    : 1 280 pixels
Height                                   : 534 pixels
Display aspect ratio                     : 2.40:1
Original display aspect ratio            : 2.40:1
Frame rate mode                          : Constant
Frame rate                               : 23.976 (24000/1001) fps
Color space                              : YUV
Chroma subsampling                       : 4:2:0
Bit depth                                : 8 bits
Scan type                                : Progressive
Bits/(Pixel*Frame)                       : 0.064
Stream size                              : 724 MiB (84%)
Title                                    : 720P - Filmbol.org
Writing library                          : x264 core 157
Default                                  : Yes
Forced                                   : No

Audio
ID                                       : 2
Format                                   : AC-3
Format/Info                              : Audio Coding 3
Mode extension                           : CM (complete main)
Format settings, Endianness              : Big
Codec ID                                 : A_AC3
Duration                                 : 1h 36mn
Bit rate mode                            : Constant
Bit rate                                 : 192 Kbps
Channel(s)                               : 2 channels
Channel positions                        : Front: L R
Sampling rate                            : 48.0 KHz
Frame rate                               : 31.250 fps (1536 spf)
Compression mode                         : Lossy
Stream size                              : 133 MiB (15%)
Title                                    : Türkçe - Filmbol.org
Language                                 : Turkish
Default                                  : No
Forced                                   : No



Film Detayları


Climax

Climax

Climax


Film Fragmanı


Film Detayları

Mini 720P İndir


LetsUpload ile indir


Mega ile indir

jbhi
 
Cevapla
#2
film için teşekkürler
 
Cevapla
#3
Teşekkürler
 
Cevapla
#4
teşekkürler
 
Cevapla
#5
Teşekkürler
 
Cevapla
#6
Cool
 
Cevapla
  


Konu ile Alakalı Benzer Konular
Konular Yazar Yorumlar Okunma Son Yorum
Filmin Yayınlanma Tarihi: 2018 Tau Türkçe Dublaj m720P İndir BroserBros 3 695 14-03-2020, Saat: 22:27
Son Yorum: eness1408
Filmin Yayınlanma Tarihi: 2019 Glass (Glass) Türkçe Dublaj BLURAY m720P İndir BroserBros 8 621 22-02-2020, Saat: 18:52
Son Yorum: YusufK
Filmin Yayınlanma Tarihi: 2016 Ölüm Alfabesi: Kötülüğün Başlangıcı Türkçe Dublaj m720P İndir BroserBros 5 1,809 13-02-2020, Saat: 06:47
Son Yorum: filmbolcu
Filmin Yayınlanma Tarihi: 2016 Sharknado: 4 Türkçe Dublaj m720P İndir BroserBros 2 872 09-02-2020, Saat: 22:00
Son Yorum: yalcingul
Filmin Yayınlanma Tarihi: 2016 Gece Hayvanları (Nacturnal Animals) Türkçe Dublaj m720P İndir BroserBros 2 1,010 09-02-2020, Saat: 13:38
Son Yorum: TestTickle

Hızlı Menü:


Browsing: 1 Ziyaretçi