Filmbol Forum Film İndir 720P v Climax (2018) Türkçe Dublaj BLURAY m720P İndir
Mega linklerinin şikayet edilmemesi için global erişime kapatıp sadece yorum yapanlara açıyoruz. Bu linkleri gizleme işlemini mecburen yapıyoruz ve yorum yapmanızın siteye değil size faydası vardır. Teşekürler yazmayı çok görüp, Random/Spam mesajlar atarak Mega linklerini açmaya çalışan kullanıcılara önce süresiz ban, devam ederse IP ban atacağız.
Filmbol'da moderatör olmak ister misiniz? Bizimle iletişime geçmek için tıklayın!
Climax (2018) Türkçe Dublaj BLURAY m720P İndir
BroserBros
Climax (2018) Türkçe Dublaj BLURAY m720P İndir
5
830
  • Derecelendirme: 0/5 - 0 oy
  • 1
  • 2
  • 3
  • 4
  • 5
Konuyu Okuyanlar:1 Ziyaretçi
Şuan Online!
Filmin Yayınlanma Tarihi: 2018 
WWW
Şuan Online!
BroserBros Kurucu Admin
*******
Admin





Ses Kodek: AC3


Audio Coding 3 (AC3)






Climax



Teknik Detaylar

Kod :
General
Complete name                            : Climax.2018.m720p.BLURAY.x264.TR.Filmbol.mkv
Format                                   : Matroska
Format version                           : Version 4 / Version 2
File size                                : 858 MiB
Duration                                 : 1h 36mn
Overall bit rate                         : 1 243 Kbps
Movie name                               : Climax (2018) - Filmbol.org
Encoded date                             : UTC 2019-08-10 12:38:02
Writing application                      : mkvmerge v35.0.0 ('All The Love In The World') 64-bit
Writing library                          : libebml v1.3.9 + libmatroska v1.5.2

Video
ID                                       : 1
Format                                   : AVC
Format/Info                              : Advanced Video Codec
Format profile                           : [email protected]
Format settings, CABAC                   : Yes
Format settings, ReFrames                : 4 frames
Codec ID                                 : V_MPEG4/ISO/AVC
Duration                                 : 1h 36mn
Bit rate                                 : 1 050 Kbps
Width                                    : 1 280 pixels
Height                                   : 534 pixels
Display aspect ratio                     : 2.40:1
Original display aspect ratio            : 2.40:1
Frame rate mode                          : Constant
Frame rate                               : 23.976 (24000/1001) fps
Color space                              : YUV
Chroma subsampling                       : 4:2:0
Bit depth                                : 8 bits
Scan type                                : Progressive
Bits/(Pixel*Frame)                       : 0.064
Stream size                              : 724 MiB (84%)
Title                                    : 720P - Filmbol.org
Writing library                          : x264 core 157
Default                                  : Yes
Forced                                   : No

Audio
ID                                       : 2
Format                                   : AC-3
Format/Info                              : Audio Coding 3
Mode extension                           : CM (complete main)
Format settings, Endianness              : Big
Codec ID                                 : A_AC3
Duration                                 : 1h 36mn
Bit rate mode                            : Constant
Bit rate                                 : 192 Kbps
Channel(s)                               : 2 channels
Channel positions                        : Front: L R
Sampling rate                            : 48.0 KHz
Frame rate                               : 31.250 fps (1536 spf)
Compression mode                         : Lossy
Stream size                              : 133 MiB (15%)
Title                                    : Türkçe - Filmbol.org
Language                                 : Turkish
Default                                  : No
Forced                                   : No



Film Detayları


Climax

Climax

Climax


Film Fragmanı


Film Detayları

Mini 720P İndir



Mega linki şuan da gizli. Kullanıma açmak için konuya yorum yapın ve ardından sayfayı yenileyin.

Mega


jbhi
Şuan Offine!
Şuan Offine!
toonami Yeni Üye
*
Üye

  • Konular0
  • Mesajlar2
  • Rep puanı 0
film için teşekkürler
Şuan Offine!
Şuan Offine!
Halilslmz Yeni Üye
*
Üye

  • Konular0
  • Mesajlar1
  • Rep puanı 0
Teşekkürler
Şuan Offine!
Şuan Offine!
DeviLJoN Uzman Üye
**
Uzman Üye

  • Konular0
  • Mesajlar8
  • Rep puanı 0
teşekkürler
Şuan Offine!
Şuan Offine!
stb Uzman Üye
**
Uzman Üye

  • Konular0
  • Mesajlar24
  • Rep puanı 0
Teşekkürler
Şuan Offine!
Şuan Offine!
NONAMES Yeni Üye
*
Üye

  • Konular0
  • Mesajlar3
  • Rep puanı 0
Cool


Konu ile Alakalı Benzer Konular
Konular Yazar Yorumlar Okunma Son Yorum
Filmin Yayınlanma Tarihi: 2018
Venom: Zehirli Öfke (Venom) - 2018 - TR+ORG - 720P | tt1270797 BroserBros 17 2,500 06-03-2021, Saat: 12:17
Son Yorum: BroserBros
Filmin Yayınlanma Tarihi: 2007
Harry Potter ve Zümrüdüanka Yoldaşlığı (2007) Türkçe Dublaj BLURAY m720P İndir BroserBros 7 1,051 05-03-2021, Saat: 01:31
Son Yorum: gonenoya
Filmin Yayınlanma Tarihi: 2005
Harry Potter ve Ateş Kadehi (Goblet of Fire) Türkçe Dublaj BLURAY m720P İndir BroserBros 15 2,111 05-03-2021, Saat: 01:30
Son Yorum: gonenoya
Filmin Yayınlanma Tarihi: 2004
Harry Potter ve Azbakan Tutsağı (Prisoner of Azkaban) Türkçe Dublaj m720P İndir BroserBros 20 1,931 05-03-2021, Saat: 01:29
Son Yorum: gonenoya
Filmin Yayınlanma Tarihi: 2002
Harry Potter ve Sırlar Odası (Chamber of Secrets) Türkçe Dublaj BLURAY m720P İndir BroserBros 19 2,867 05-03-2021, Saat: 01:27
Son Yorum: gonenoya

Hızlı Menü: