Filmbol Forum Film İndir 720P v Climax (2018) Türkçe Dublaj BLURAY m720P İndir
Filmbol'da moderatör olmak ister misiniz? Bizimle iletişime geçmek için tıklayın!
Climax (2018) Türkçe Dublaj BLURAY m720P İndir
BroserBros
Climax (2018) Türkçe Dublaj BLURAY m720P İndir
5
704
  • Derecelendirme: 0/5 - 0 oy
  • 1
  • 2
  • 3
  • 4
  • 5
Konuyu Okuyanlar:1 Ziyaretçi
Şuan Online!
Filmin Yayınlanma Tarihi: 2018 
Şuan Online!
BroserBros Kurucu Admin
*******
Admin

indirme türü


Bulut + Premium

Vizyon Tarihi


02 Kasım 2018

Boyutlar


0,85

diller


[TR]

altyazilar


Yok [Eklenebilir]

Video Format: Mkv


Matroska (.MKV)

Video Detay


MPEG-4, 1291 Kbps, 0,89GB

imdb puanı


7,2 / 10,0 / 30,000

süre


97 dakika

Ses Kodek: AC3


Audio Coding 3 (AC3)

Ses Detay


192 Kbps, 2 Kanal, 133Mb

Editör Puanı


6,2

Genislik Yukseklik


1280-534

sürüm


x264 | 720P




Climax


Film Detayları

Climax, Fransa’daki köhne bir dans kulübünde geçen uzun bir geceyi takip ediyor. 90’ların ortasında 20 dansçı, üç günlük bir prova için ormandaki yatılı bir okulda bir araya gelir. Birbirini yeni tanıyan ekip provalar dışında da eğlenceli vakit geçirirler. Provalar bitmesinin ardından ayrılmadan önce son bir parti düzenlerler. Fakat içkilerin sayısı arttıkça içlerinden bazıları tuhaf davranışlar sergilemeye başlar. Gençler bir süre sonra tamamen kontrollerini kaybeder. Artık onların içine düştükleri girdaba direnmeleri neredeyse imkansızdır. Müzik, dans, gerilim ve cinsellik dolu bu ortamda kimileri cennette olduğunu hissederken kimileri içinse durum cehennemden farksızdır. Filmin yönetmen ve senarsitliğini “Dönüş Yok”, “Boşluk” ve “Aşk” gibi filmlerle tanınan Arjantinli yönetmen Gaspar Noe üstleniyor. Filmin kadrosunda “Kingsman: Gizli Servis” ve “Mumya” filmlerinde izlediğimiz Sofia Boutella’nın yanı sıra Romain Guillermic, Souheila Yacoub, Kiddy Smile, Claude Gajan Maull, Giselle Palmer gibi isimler yer alıyor. Görüntü yönetmenliğini Benoît Debie’nin üstlendiği filmin prömiyeri 71. Cannes Film Festivali’nde gerçekleşti.
 
Climax (2018) Filmi Imdb'den 30,000 kişi tarafından oylandı ve 7,2 puan aldı. Bu film için editör puanı 6,2 olarak belirlendi. İyi Seyirler!


Teknik Detaylar

Kod :
General
Complete name                            : Climax.2018.m720p.BLURAY.x264.TR.Filmbol.mkv
Format                                   : Matroska
Format version                           : Version 4 / Version 2
File size                                : 858 MiB
Duration                                 : 1h 36mn
Overall bit rate                         : 1 243 Kbps
Movie name                               : Climax (2018) - Filmbol.org
Encoded date                             : UTC 2019-08-10 12:38:02
Writing application                      : mkvmerge v35.0.0 ('All The Love In The World') 64-bit
Writing library                          : libebml v1.3.9 + libmatroska v1.5.2

Video
ID                                       : 1
Format                                   : AVC
Format/Info                              : Advanced Video Codec
Format profile                           : High@L4.1
Format settings, CABAC                   : Yes
Format settings, ReFrames                : 4 frames
Codec ID                                 : V_MPEG4/ISO/AVC
Duration                                 : 1h 36mn
Bit rate                                 : 1 050 Kbps
Width                                    : 1 280 pixels
Height                                   : 534 pixels
Display aspect ratio                     : 2.40:1
Original display aspect ratio            : 2.40:1
Frame rate mode                          : Constant
Frame rate                               : 23.976 (24000/1001) fps
Color space                              : YUV
Chroma subsampling                       : 4:2:0
Bit depth                                : 8 bits
Scan type                                : Progressive
Bits/(Pixel*Frame)                       : 0.064
Stream size                              : 724 MiB (84%)
Title                                    : 720P - Filmbol.org
Writing library                          : x264 core 157
Default                                  : Yes
Forced                                   : No

Audio
ID                                       : 2
Format                                   : AC-3
Format/Info                              : Audio Coding 3
Mode extension                           : CM (complete main)
Format settings, Endianness              : Big
Codec ID                                 : A_AC3
Duration                                 : 1h 36mn
Bit rate mode                            : Constant
Bit rate                                 : 192 Kbps
Channel(s)                               : 2 channels
Channel positions                        : Front: L R
Sampling rate                            : 48.0 KHz
Frame rate                               : 31.250 fps (1536 spf)
Compression mode                         : Lossy
Stream size                              : 133 MiB (15%)
Title                                    : Türkçe - Filmbol.org
Language                                 : Turkish
Default                                  : No
Forced                                   : No



Film Detayları


Climax

Climax

Climax


Film Fragmanı


Film Detayları

Mini 720P İndir


LetsUpload ile indir


Mega ile indir

jbhi
Şuan Offine!
Şuan Offine!
toonami Yeni Üye
*
Üye

  • Konular0
  • Mesajlar2
  • Rep puanı 0
film için teşekkürler
Şuan Offine!
Şuan Offine!
Halilslmz Yeni Üye
*
Üye

  • Konular0
  • Mesajlar1
  • Rep puanı 0
Teşekkürler
Şuan Offine!
Şuan Offine!
DeviLJoN Uzman Üye
**
Uzman Üye

  • Konular0
  • Mesajlar8
  • Rep puanı 0
teşekkürler
Şuan Offine!
Şuan Offine!
stb Uzman Üye
**
Uzman Üye

  • Konular0
  • Mesajlar14
  • Rep puanı 0
Teşekkürler
Şuan Offine!
Şuan Offine!
NONAMES Yeni Üye
*
Üye

  • Konular0
  • Mesajlar3
  • Rep puanı 0
Cool


Konu ile Alakalı Benzer Konular
Konular Yazar Yorumlar Okunma Son Yorum
Filmin Yayınlanma Tarihi: 2018
Vita & Virginia (Vita ve Virginia) - 2018 - TR+ORG - 720P BroserBros 0 20 , Saat: 15:31
Son Yorum: BroserBros
Filmin Yayınlanma Tarihi: 2018
Yaramazlar Takımı: Zaman Yolcuları (Smeshariki. Dezha vyu) - 2018 - TR+ORG - 720P BroserBros 0 28 25-11-2020, Saat: 17:59
Son Yorum: BroserBros
Filmin Yayınlanma Tarihi: 2018
Tutarsız Adam (Spinning Man) - 2018 - TR+ORG - 720P BroserBros 0 28 25-11-2020, Saat: 17:27
Son Yorum: BroserBros
Filmin Yayınlanma Tarihi: 2018
Kin (Kin) - 2018 - TR+ORG - 720P BroserBros 0 78 15-11-2020, Saat: 16:14
Son Yorum: BroserBros
Filmin Yayınlanma Tarihi: 2018
Fast Color: Gücünü Serbest Bırak (Fast Color) - 2018 - TR+ORG - 720P BroserBros 0 825 03-10-2020, Saat: 16:46
Son Yorum: BroserBros

Hızlı Menü: